Super.Shark.2011.DVDRip.XviD-OCW



iMDB :
http://www.imdb.com/title/tt1698008/

Synopsis:
An offshore drilling accident triggers the release of a giant prehistoric shark. When marine biologist Kat Carmichael (Sarah Lieving) arrives, she runs up against corporate frontman Roger Wade (John Schneider, The Dukes Of Hazard, Smallville, Desperate Housewives), who plots with Stewart (Jerry Lacy, Dark Shadows) to disrupt her investigation.
- My Upload.
- Working 100%.
- No Password.
- Interchangeable Links.
- 10% Recovery Added.
- Language : English.


Single Link :
http://www.filesonic.com/file/hjQmBG...p.XviD-OCW.rar
Or
http://www.filejungle.com/f/bJwmfY/S...p.XviD-OCW.rar
Or
http://www.fileserve.com/file/BDdqE6...p.XviD-OCW.rar

Fileserve :
http://www.fileserve.com/file/UgBHqE....OCW.part1.rar
http://www.fileserve.com/file/cYJAcr....OCW.part2.rar

Filesonic :
http://www.filesonic.com/file/Kkmbzr....OCW.part1.rar
http://www.filesonic.com/file/gfOMit....OCW.part2.rar

Filejungle :
http://www.filejungle.com/f/ejdaq5/S....OCW.part1.rar
http://www.filejungle.com/f/hYHHg3/S....OCW.part2.rar

Uploaded :
http://ul.to/91dwn6xz/Super.Shark.20....OCW.part1.rar
http://ul.to/igpkki30/Super.Shark.20....OCW.part2.rar

PLEASE REPLY IF YOU LIKE MY POST!

SCREENSHOT :


NFO :
General
Complete name : Super.Shark.2011.DVDRip.XviD-OCW.avi
Format : AVI
Format/Info : Audio Video Interleave
File size : 1 023 MiB
Duration : 1h 17mn
Overall bit rate : 1 852 Kbps
Writing library : MPlayer

Video
ID : 0
Format : MPEG-4 Visual
Format profile : Advanced [email protected]
Format settings, BVOP : 2
Format settings, QPel : No
Format settings, GMC : No warppoints
Format settings, Matrix : Default (H.263)
Codec ID : XVID
Codec ID/Hint : XviD
Duration : 1h 17mn
Bit rate : 1 591 Kbps
Width : 640 pixels
Height : 352 pixels
Display aspect ratio : 16:9
Frame rate : 25.000 fps
Color space : YUV
Chroma subsampling : 4:2:0
Bit depth : 8 bits
Scan type : Progressive
Compression mode : Lossy
Bits/(Pixel*Frame) : 0.282
Stream size : 879 MiB (86%)
Writing library : XviD 63

Audio
ID : 1
Format : MPEG Audio
Format version : Version 1
Format profile : Layer 3
Mode : Joint stereo
Codec ID : 55
Codec ID/Hint : MP3
Duration : 1h 17mn
Bit rate mode : Constant
Bit rate : 256 Kbps
Channel(s) : 2 channels
Sampling rate : 44.1 KHz
Compression mode : Lossy
Delay relative to video : 40ms
Stream size : 141 MiB (14%)
Alignment : Split accross interleaves
Interleave, duration : 500 ms (12.50 video frames)
Interleave, preload duration : 500 ms