Game.Time.The.Duel.2011.DVDRip.Xvid.AC3-26K



iMDB :
http://www.imdb.com/title/tt1941684/

Synopsis:
With a fresh start, trying to escape an abusive past, Vance and his mother have just moved to a new city. Searching for a way to support his family while continuing his education he joins forces with Jules, who is looking for a highly skilled, basketball duel partner. With their impressive talent these two start cleaning the streets, winning every duel in town. Once word spreads they’re invited to enter the ultra-violent, competitive duel championship. With high hopes for the win they’ll do whatever it takes to walk off the court the new champions.
- My Upload.
- Working 100%.
- No Password.
- Interchangeable Links.
- 10% Recovery Added.
- Language : English.


Single Link :
http://www.filesonic.com/file/WJOqph...C3-26K.avi.rar
Or
http://www.filejungle.com/f/DvQSqR/G...C3-26K.avi.rar
Or
http://www.fileserve.com/file/JkEbF5...C3-26K.avi.rar

Fileserve :
http://www.fileserve.com/file/gPFCkp...-26K.part1.rar
http://www.fileserve.com/file/9rkWxC...-26K.part2.rar
http://www.fileserve.com/file/PSgeBG...-26K.part3.rar
http://www.fileserve.com/file/qv3zMM...-26K.part4.rar

Filesonic :
http://www.filesonic.com/file/BXs63R...-26K.part1.rar
http://www.filesonic.com/file/jC3NGK...-26K.part2.rar
http://www.filesonic.com/file/boVsrn...-26K.part3.rar
http://www.filesonic.com/file/vZBs9w...-26K.part4.rar

Filejungle :
http://www.filejungle.com/f/mCw7V6/G...-26K.part1.rar
http://www.filejungle.com/f/aHUPKB/G...-26K.part2.rar
http://www.filejungle.com/f/ux9HWx/G...-26K.part3.rar
http://www.filejungle.com/f/gDttPb/G...-26K.part4.rar

Uploaded :
http://ul.to/iphcvddr/Game.Time.The....-26K.part1.rar
http://ul.to/l6uo8vwd/Game.Time.The....-26K.part2.rar
http://ul.to/upuaqdti/Game.Time.The....-26K.part3.rar
http://ul.to/5vzh7spk/Game.Time.The....-26K.part4.rar

PLEASE REPLY IF YOU LIKE MY POST!

SCREENSHOT :


NFO :
Game Time The Duel 2011 DVDRip Xvid AC3-26K

Imdb:
http://www.imdb.com/title/tt1941684/

Plot:
With a fresh start, trying to escape an abusive past, Vance and his mother have just moved to a new city

Sources:
own DVDR

Notes:
eng subtitles in folder !
ENJOY!


Greetz:
Xtreme Encode|FYA|ILLUMANTI|CM8|RX|VISION|HDSCENE|NIGHTMAREZ|xTriLL|DTRG|CRYS|REMIXHD|BIDA
To all the people who have helped me you know who you are

Anything to offer email us @: [email protected]

Video
ID : 0
Format : MPEG-4 Visual
Format profile : Advanced [email protected]
Format settings, BVOP : 2
Format settings, QPel : No
Format settings, GMC : No warppoints
Format settings, Matrix : Default (H.263)
Muxing mode : Packed bitstream
Codec ID : XVID
Codec ID/Hint : XviD
Duration : 1h 40mn
Bit rate : 2 298 Kbps
Width : 720 pixels
Height : 404 pixels
Display aspect ratio : 16:9
Frame rate : 23.976 fps
Color space : YUV
Chroma subsampling : 4:2:0
Bit depth : 8 bits
Scan type : Progressive
Compression mode : Lossy
Bits/(Pixel*Frame) : 0.330
Stream size : 1.62 GiB (83%)
Writing library : XviD 1.2.1 (UTC 2008-12-04)

Audio
ID : 1
Format : AC-3
Format/Info : Audio Coding 3
Mode extension : CM (complete main)
Codec ID : 2000
Duration : 1h 40mn
Bit rate mode : Constant
Bit rate : 448 Kbps
Channel(s) : 6 channels
Channel positions : Front: L C R, Side: L R, LFE
Sampling rate : 48.0 KHz
Bit depth : 16 bits
Compression mode : Lossy
Stream size : 323 MiB (16%)
Alignment : Aligned on interleaves
Interleave, duration : 32 ms (0.77 video frame)
Interleave, preload duration : 32 ms