Pete.Smalls.Is.Dead.2010.Xvid.AC3-26K



iMDB :
http://www.imdb.com/title/tt1381413/

Synopsis:
Two old pals attend an old friends funeral and find there is more to his death than him being dead.
- My Upload.
- Working 100%.
- No Password.
- Interchangeable Links.
- 10% Recovery Added.
- Language : English.


Single Link :
http://www.filesonic.com/file/l9oT68...id.AC3-26K.avi
Or
http://www.filejungle.com/f/JUeXug/P...id.AC3-26K.avi
Or
http://www.fileserve.com/file/Jfu49J...id.AC3-26K.avi

Fileserve :
http://www.fileserve.com/file/vvVgxM...-26K.part1.rar
http://www.fileserve.com/file/bucsVF...-26K.part2.rar
http://www.fileserve.com/file/r9S5u4...-26K.part3.rar
http://www.fileserve.com/file/zyCfRz...-26K.part4.rar

Filesonic :
http://www.filesonic.com/file/HRX0mV...-26K.part1.rar
http://www.filesonic.com/file/l9oT7m...-26K.part2.rar
http://www.filesonic.com/file/YDbTra...-26K.part3.rar
http://www.filesonic.com/file/w6mPR1...-26K.part4.rar

Filejungle :
http://www.filejungle.com/f/AZcSG2/P...-26K.part1.rar
http://www.filejungle.com/f/R29UjJ/P...-26K.part2.rar
http://www.filejungle.com/f/NExHbt/P...-26K.part3.rar
http://www.filejungle.com/f/NZMVGJ/P...-26K.part4.rar

Uploaded :
http://ul.to/zuqkhvg5/Pete.Smalls.Is...-26K.part1.rar
http://ul.to/tpmoa6uj/Pete.Smalls.Is...-26K.part2.rar
http://ul.to/87s3o60s/Pete.Smalls.Is...-26K.part3.rar
http://ul.to/yhmhpl5j/Pete.Smalls.Is...-26K.part4.rar

PLEASE REPLY IF YOU LIKE MY POST!

SCREENSHOT :


NFO :
Pete Smalls Is Dead 2010 Xvid AC3-26K

Imdb:
http://www.imdb.com/title/tt1381413/

Plot:
Two old pals attend an old friends funeral and find there is more to his death than him being dead.

Sources:
DVDR

Notes:
enjoy guyz

Greetz:
Xtreme Encode|FYA|ILLUMANTI|CM8|RX|VISION|HDSCENE|NIGHTMAREZ|xTriLL|DTRG|CRYS|REMIXHD|BIDA
To all the people who have helped me you know who you are

Anything to offer email us @: [email protected]

Video
ID : 0
Format : MPEG-4 Visual
Format profile : Advanced [email protected]
Format settings, BVOP : 2
Format settings, QPel : No
Format settings, GMC : No warppoints
Format settings, Matrix : Default (H.263)
Muxing mode : Packed bitstream
Codec ID : XVID
Codec ID/Hint : XviD
Duration : 1h 34mn
Bit rate : 1 701 Kbps
Width : 720 pixels
Height : 398 pixels
Display aspect ratio : 16:9
Frame rate : 23.976 fps
Color space : YUV
Chroma subsampling : 4:2:0
Bit depth : 8 bits
Scan type : Progressive
Compression mode : Lossy
Bits/(Pixel*Frame) : 0.248
Stream size : 1.12 GiB (79%)
Writing library : XviD 1.2.1 (UTC 2008-12-04)

Audio
ID : 1
Format : AC-3
Format/Info : Audio Coding 3
Mode extension : CM (complete main)
Codec ID : 2000
Duration : 1h 34mn
Bit rate mode : Constant
Bit rate : 448 Kbps
Channel(s) : 6 channels
Channel positions : Front: L C R, Side: L R, LFE
Sampling rate : 48.0 KHz
Bit depth : 16 bits
Compression mode : Lossy
Stream size : 303 MiB (21%)
Alignment : Aligned on interleaves
Interleave, duration : 32 ms (0.77 video frame)
Interleave, preload duration : 32 ms