Animal.Kingdom.2010.DvDrip.Xvid.EMPIrE



iMDB :
http://www.imdb.com/title/tt1313092/

Synopsis:
Despite being no saint herself, Julia Cody has shielded her seventeen year old son, Joshua “J” Cody, from her Melbourne-based criminal relatives who they have not seen in years. After Julia dies in front of J’s eyes from a self-inflicted heroin overdose, J, who is slightly detached from life, feels he has no choice but to contact his maternal grandmother, Janine “Smurf” Cody, the family matriarch, for a place to live. Smurf rules the family with a borderline incestuous love over her three sons, the quietly menacing Andrew “Pope” Cody, the hyperactive Craig Cody, and the barely of age Darren Cody. Pope and his best friend, Barry “Baz” Brown, are armed robbers, with Darren their up and coming apprentice, while Craig is a mid level drug dealer. Melbourne’s Armed Robbery Squad is after specifically Pope, who is hiding out. But when the standoff between the Codys and the Armed Robbery Squad is brought up a notch
- My Upload.
- Working 100%.
- No Password.
- Interchangeable Links.
- 10% Recovery Added.
- Language : English.


Fileserve :
http://www.fileserve.com/file/ZTwjVf...vid.EMPIrE.avi

Filesonic :
http://www.filesonic.com/file/AQCGy4...vid.EMPIrE.avi

Filejungle :
http://www.filejungle.com/f/NsgxJ5/A...vid.EMPIrE.avi

Uploaded :
http://ul.to/te767tlf/Animal.Kingdom...vid.EMPIrE.avi

PLEASE REPLY IF YOU LIKE MY POST!

SCREENSHOT :


NFO :
General
Complete name : Animal.Kingdom.2010.DvDrip.Xvid.EMPIrE.avi
Format : AVI
Format/Info : Audio Video Interleave
File size : 800 MiB
Duration : 1h 53mn
Overall bit rate : 988 Kbps
Writing application : VirtualDubMod 1.5.10.2 (build 2542/release)
Writing library : VirtualDubMod build 2542/release

Video
ID : 0
Format : MPEG-4 Visual
Format profile : Advanced [email protected]
Format settings, BVOP : 1
Format settings, QPel : No
Format settings, GMC : No warppoints
Format settings, Matrix : Default (H.263)
Muxing mode : Packed bitstream
Codec ID : XVID
Codec ID/Hint : XviD
Duration : 1h 53mn
Bit rate : 867 Kbps
Width : 640 pixels
Height : 272 pixels
Display aspect ratio : 2.35:1
Frame rate : 23.976 fps
Color space : YUV
Chroma subsampling : 4:2:0
Bit depth : 8 bits
Scan type : Progressive
Compression mode : Lossy
Bits/(Pixel*Frame) : 0.208
Stream size : 702 MiB (88%)
Writing library : XviD 62

Audio
ID : 1
Format : MPEG Audio
Format version : Version 1
Format profile : Layer 3
Mode : Joint stereo
Codec ID : 55
Codec ID/Hint : MP3
Duration : 1h 53mn
Bit rate mode : Constant
Bit rate : 112 Kbps
Channel(s) : 2 channels
Sampling rate : 44.1 KHz
Compression mode : Lossy
Delay relative to video : 26ms
Stream size : 90.7 MiB (11%)
Alignment : Split accross interleaves
Interleave, duration : 42 ms (1.00 video frame)
Interleave, preload duration : 500 ms
Writing library : LAME3.92