The Scorpion King 3 Battle for Redemption 2012 BDRip XVID AC3 HQ Hive-CM8



iMDB :
http://www.imdb.com/title/tt1781896/

Synopsis:
The Scorpion King 3: Battle for Redemption brings the heroic, larger-than-life saga of the dethroned king Mathayus to face some of his fiercest demons and most vicious rivals—both real and supernatural—ever. In a dangerous, action-packed battle to regain his glory and reclaim the empire, Mathayus’s journey is steeped in intrigue, sorcery and romance…The film’s fight scenes, choreographed by stunt experts Kawee “Seng” Sirikanerut (Ong Bak: The Thai Warrior) and Supoj “Jimmy” Khaowwong (Batman Begins), are showcased within enchanting ancient palaces, against a backdrop of breathtaking desert vistas. The Scorpion King 3: Battle for Redemption [also] stars Golden Globe® winner Ron Perlman (Hellboy II: The Golden Army) as Horus, the powerful King of Egypt, and Billy Zane (Dead Calm) as the villainous Talus.
- My Upload.
- Working 100%.
- No Password.
- Interchangeable Links.
- 10% Recovery Added.
- Language : English.


Single Link :
http://www.filesonic.com/file/BXjp64...Q.Hive-CM8.avi
Or
http://www.filejungle.com/f/sJFCVf/T...Q.Hive-CM8.avi
Or
http://www.fileserve.com/file/Azeh8k...Q.Hive-CM8.avi

Fileserve :
http://www.fileserve.com/file/v47hEK...-CM8.part1.rar
http://www.fileserve.com/file/hA7xyC...-CM8.part2.rar
http://www.fileserve.com/file/JdRXkn...-CM8.part3.rar
http://www.fileserve.com/file/RgwNxQ...-CM8.part4.rar

Filesonic :
http://www.filesonic.com/file/XzvXS5...-CM8.part1.rar
http://www.filesonic.com/file/vZt2st...-CM8.part2.rar
http://www.filesonic.com/file/U8Pgdh...-CM8.part3.rar
http://www.filesonic.com/file/QNV9gP...-CM8.part4.rar

Filejungle :
http://www.filejungle.com/f/GtfaU7/T...-CM8.part1.rar
http://www.filejungle.com/f/7q6Tmy/T...-CM8.part2.rar
http://www.filejungle.com/f/QdAH5G/T...-CM8.part3.rar
http://www.filejungle.com/f/t7Jw66/T...-CM8.part4.rar

Uploaded :
http://ul.to/wvx9gfhd/The.Scorpion.K...-CM8.part1.rar
http://ul.to/7m3zhpaa/The.Scorpion.K...-CM8.part2.rar
http://ul.to/myrq8kk5/The.Scorpion.K...-CM8.part3.rar
http://ul.to/g12zta9j/The.Scorpion.K...-CM8.part4.rar

PLEASE REPLY IF YOU LIKE MY POST!

SCREENSHOT :


NFO :
General
Complete name : The.Scorpion.King.3.Battle for Redemption.2012.BDRip.XVID.AC3.HQ.Hive-CM8.avi
Format : AVI
Format/Info : Audio Video Interleave
File size : 1.59 GiB
Duration : 1h 45mn
Overall bit rate : 2 155 Kbps
Writing application : Nandub v1.0rc2
Writing library : Nandub build 1853/release

Video
ID : 0
Format : MPEG-4 Visual
Format profile : Advanced [email protected]
Format settings, BVOP : 1
Format settings, QPel : Yes
Format settings, GMC : No warppoints
Format settings, Matrix : Default (H.263)
Muxing mode : Packed bitstream
Codec ID : XVID
Codec ID/Hint : XviD
Duration : 1h 45mn
Bit rate : 1 697 Kbps
Width : 720 pixels
Height : 400 pixels
Display aspect ratio : 16:9
Frame rate : 23.976 fps
Color space : YUV
Chroma subsampling : 4:2:0
Bit depth : 8 bits
Scan type : Progressive
Compression mode : Lossy
Bits/(Pixel*Frame) : 0.246
Stream size : 1.25 GiB (79%)
Writing library : XviD 1.2.1 (UTC 2008-12-04)

Audio
ID : 1
Format : AC-3
Format/Info : Audio Coding 3
Mode extension : CM (complete main)
Codec ID : 2000
Duration : 1h 45mn
Bit rate mode : Constant
Bit rate : 448 Kbps
Channel(s) : 6 channels
Channel positions : Front: L C R, Side: L R, LFE
Sampling rate : 48.0 KHz
Bit depth : 16 bits
Compression mode : Lossy
Stream size : 338 MiB (21%)
Alignment : Split accross interleaves
Interleave, duration : 42 ms (1.00 video frame)
Interleave, preload duration : 500 ms