Fritt.Vilt.III.2010.NORWEGIAN.720p.BluRay.x264-NOHD



iMDB :
http://www.imdb.com/title/tt1464535/

Synopsis:
Takes place in the 80′s where a group of teenagers go to visit an abandoned hotel, only to find themselves hunted by a psychotic killer through the Norwegian woods.
- My Upload.
- Working 100%.
- No Password.
- Interchangeable Links.
- 10% Recovery Added.
- Language : Norwegian.

ENGLiSH SUBS:
http://subscene.com/Cold-Prey-3-Frit...les-86937.aspx


Single Link :
http://www.filesonic.com/file/GjDugV9/n-fv3.720p.mkv

Fileserve :
http://www.fileserve.com/file/qJx8WY...720p.part1.rar
http://www.fileserve.com/file/v3wR4b...720p.part2.rar
http://www.fileserve.com/file/mjYpy8...720p.part3.rar
http://www.fileserve.com/file/Z42d6d...720p.part4.rar
http://www.fileserve.com/file/cEKf3y...720p.part5.rar

Filesonic :
http://www.filesonic.com/file/u0nIwd...720p.part1.rar
http://www.filesonic.com/file/Nr3mSn...720p.part2.rar
http://www.filesonic.com/file/tPI4gR...720p.part3.rar
http://www.filesonic.com/file/DXOTSN...720p.part4.rar
http://www.filesonic.com/file/nh2k0e...720p.part5.rar

Filejungle :
http://www.filejungle.com/f/VXVUpv/n-fv3.720p.part1.rar
http://www.filejungle.com/f/zKsYyd/n-fv3.720p.part2.rar
http://www.filejungle.com/f/4yz4kJ/n-fv3.720p.part3.rar
http://www.filejungle.com/f/XpTYdx/n-fv3.720p.part4.rar
http://www.filejungle.com/f/ThqtzB/n-fv3.720p.part5.rar

Uploaded :
http://ul.to/9w49698x/n-fv3.720p.part2.rar
http://ul.to/ro98r0rm/n-fv3.720p.part3.rar
http://ul.to/qrk0doch/n-fv3.720p.part4.rar
http://ul.to/d8kot5m8/n-fv3.720p.part5.rar
http://ul.to/guzbbi8r/n-fv3.720p.part1.rar

PLEASE REPLY IF YOU LIKE MY POST!

SCREENSHOT :


NFO :
General
Unique ID : 195669300871864890120474360448553310665 (0x9334895CF4B3DF349454DC7CB6A3D9C9)
Complete name : n-fv3.720p.mkv
Format : Matroska
File size : 4.37 GiB
Duration : 1h 37mn
Overall bit rate : 6 403 Kbps
Encoded date : UTC 2011-02-16 05:52:02
Writing application : mkvmerge v4.4.0 ('Die Wiederkehr') built on Oct 31 2010 21:52:48
Writing library : libebml v1.0.0 + libmatroska v1.0.0

Video
ID : 1
Format : AVC
Format/Info : Advanced Video Codec
Format profile : [email protected]
Format settings, CABAC : Yes
Format settings, ReFrames : 5 frames
Muxing mode : Header stripping
Codec ID : V_MPEG4/ISO/AVC
Duration : 1h 37mn
Bit rate : 4 896 Kbps
Width : 1 280 pixels
Height : 544 pixels
Display aspect ratio : 2.35:1
Frame rate : 24.000 fps
Color space : YUV
Chroma subsampling : 4:2:0
Bit depth : 8 bits
Scan type : Progressive
Bits/(Pixel*Frame) : 0.293
Stream size : 3.25 GiB (74%)
Writing library : x264 core 113 r1884 7313bb5
Encoding settings : cabac=1 / ref=5 / deblock=1:0:0 / analyse=0x3:0x133 / me=umh / subme=7 / psy=1 / psy_rd=1.00:0.00 / mixed_ref=1 / me_range=16 / chroma_me=1 / trellis=1 / 8x8dct=1 / cqm=0 / deadzone=21,11 / fast_pskip=0 / chroma_qp_offset=-2 / threads=9 / sliced_threads=0 / nr=0 / decimate=1 / interlaced=0 / constrained_intra=0 / bframes=3 / b_pyramid=2 / b_adapt=1 / b_bias=0 / direct=1 / weightb=1 / open_gop=0 / weightp=2 / keyint=250 / keyint_min=23 / scenecut=40 / intra_refresh=0 / rc_lookahead=40 / rc=2pass / mbtree=1 / bitrate=4896 / ratetol=1.0 / qcomp=0.60 / qpmin=0 / qpmax=69 / qpstep=4 / cplxblur=20.0 / qblur=0.5 / ip_ratio=1.40 / aq=1:1.00
Language : Norwegian

Audio
ID : 2
Format : DTS
Format/Info : Digital Theater Systems
Muxing mode : Header stripping
Codec ID : A_DTS
Duration : 1h 37mn
Bit rate mode : Constant
Bit rate : 1 510 Kbps
Channel(s) : 6 channels
Channel positions : Front: L C R, Side: L R, LFE
Sampling rate : 48.0 KHz
Bit depth : 24 bits
Compression mode : Lossy
Stream size : 1.03 GiB (24%)
Language : Norwegian