All.About.Anna.2005.400MB.DVDRip.x264-AZM



iMDB :
http://www.imdb.com/title/tt0349080/

Synopsis:
Anna is a modern, independent single girl, focused on her job and wary of getting caught in romantic relationships. Her life is all about fun. Strangers without strings. No commitment, no casualties. She has just found a new apartment, and is tempted to let her latest boyfriend, Frank, move in with her. Instead, she finds a tenant: The flamboyant, fun-loving Camilla, who shares Anna’s views on love and commitment. But then an old boyfriend happens to knock on her door: Johan, the very man who five years previously broke Anna’s heart. Anna is tempted. It’s not good. More than ever, she needs to get back on the merry-go-round and move on. Fortunately, she receives an offer to design costumes for a theatre in Paris. As far away from romantic temptation as possible right?
- My Upload.
- Working 100%.
- No Password.
- Interchangeable Links.
- 10% Recovery Added.
- Language : English.


Fileserve :
http://www.fileserve.com/file/K675nm...vdrip.x264.mp4

Filesonic :
http://www.filesonic.com/file/tPIKCe...vdrip.x264.mp4

Filejungle :
http://www.filejungle.com/f/HtH6fw/a...vdrip.x264.mp4

Uploaded :
http://ul.to/x18yuiaw/azm-aaa.dvdrip.x264.mp4

PLEASE REPLY IF YOU LIKE MY POST!

SCREENSHOT :


NFO :
General
Complete name : azm-aaa.dvdrip.x264.mp4
Format : MPEG-4
Format profile : Base Media
Codec ID : isom
File size : 394 MiB
Duration : 1h 31mn
Overall bit rate : 602 Kbps
Encoded date : UTC 2011-12-23 12:47:32
Tagged date : UTC 2011-12-23 12:47:32

Video
ID : 1
Format : AVC
Format/Info : Advanced Video Codec
Format profile : [email protected]
Format settings, CABAC : Yes
Format settings, ReFrames : 4 frames
Codec ID : avc1
Codec ID/Info : Advanced Video Coding
Duration : 1h 31mn
Bit rate mode : Variable
Bit rate : 534 Kbps
Maximum bit rate : 3 242 Kbps
Width : 640 pixels
Height : 352 pixels
Display aspect ratio : 16:9
Frame rate mode : Constant
Frame rate : 25.000 fps
Color space : YUV
Chroma subsampling : 4:2:0
Bit depth : 8 bits
Scan type : Progressive
Bits/(Pixel*Frame) : 0.095
Stream size : 350 MiB (89%)
Writing library : x264 core 116 r2074 2641b9e
Encoding settings : cabac=1 / ref=3 / deblock=1:-2:-1 / analyse=0x3:0x113 / me=umh / subme=5 / psy=1 / psy_rd=1.00:0.00 / mixed_ref=1 / me_range=12 / chroma_me=1 / trellis=1 / 8x8dct=1 / cqm=0 / deadzone=21,11 / fast_pskip=1 / chroma_qp_offset=0 / threads=3 / sliced_threads=0 / nr=0 / decimate=1 / interlaced=0 / bluray_compat=0 / constrained_intra=0 / bframes=16 / b_pyramid=2 / b_adapt=1 / b_bias=0 / direct=3 / weightb=1 / open_gop=0 / weightp=2 / keyint=250 / keyint_min=25 / scenecut=40 / intra_refresh=0 / rc_lookahead=40 / rc=2pass / mbtree=1 / bitrate=534 / ratetol=1.0 / qcomp=0.60 / qpmin=10 / qpmax=51 / qpstep=4 / cplxblur=20.0 / qblur=0.5 / ip_ratio=1.40 / aq=2:1.00
Encoded date : UTC 2011-12-23 12:47:32
Tagged date : UTC 2011-12-23 12:48:56

Audio
ID : 2
Format : AAC
Format/Info : Advanced Audio Codec
Format profile : LC
Codec ID : 40
Duration : 1h 31mn
Bit rate mode : Variable
Bit rate : 64.0 Kbps
Maximum bit rate : 81.9 Kbps
Channel(s) : 2 channels
Channel positions : Front: L R
Sampling rate : 48.0 KHz
Compression mode : Lossy
Stream size : 41.9 MiB (11%)
Encoded date : UTC 2011-12-23 12:48:50
Tagged date : UTC 2011-12-23 12:48:56

Text
ID : 3
Format : Timed text
Codec ID : tx3g
Duration : 1h 31mn
Bit rate mode : Variable
Bit rate : 43 bps
Stream size : 28.5 KiB (0%)
Title : Vietnamese
Language : Vietnamese
Encoded date : UTC 2011-12-23 12:48:56
Tagged date : UTC 2011-12-23 12:48:56