Alvin and The Chipmunks 3 Chipwrecked 2011 CAM XVID-DTRG

iNFo:
http://www.imdb.com/title/tt1615918/
General
Complete name : Alvin.and.The.Chipmunks.3.Chipwrecked.2011.CAM.XVID-DTRG.avi
Format : AVI
Format/Info : Audio Video Interleave
File size : 1.18 GiB
Duration : 1h 20mn
Overall bit rate : 2 102 Kbps
Writing library : VirtualDub build 32842/release

Video
ID : 0
Format : MPEG-4 Visual
Format profile : Advanced [email protected]
Format settings, BVOP : 1
Format settings, QPel : No
Format settings, GMC : No warppoints
Format settings, Matrix : Default (H.263)
Muxing mode : Packed bitstream
Codec ID : XVID
Codec ID/Hint : XviD
Duration : 1h 20mn
Bit rate : 1 962 Kbps
Width : 624 pixels
Height : 338 pixels
Display aspect ratio : 16:9
Frame rate : 29.970 fps
Color space : YUV
Chroma subsampling : 4:2:0
Bit depth : 8 bits
Scan type : Progressive
Compression mode : Lossy
Bits/(Pixel*Frame) : 0.310
Stream size : 1.10 GiB (93%)
Writing library : XviD 64

Audio
ID : 1
Format : MPEG Audio
Format version : Version 1
Format profile : Layer 3
Codec ID : 55
Codec ID/Hint : MP3
Duration : 1h 20mn
Bit rate mode : Constant
Bit rate : 128 Kbps
Channel(s) : 2 channels
Sampling rate : 44.1 KHz
Compression mode : Lossy
Stream size : 73.6 MiB (6%)
Alignment : Split accross interleaves
Interleave, duration : 33 ms (1.00 video frame)
Interleave, preload duration : 500 ms


1-LINK:
http://www.filesonic.com/file/ID6UvU..._XVID_DTRG.rar
Or
http://www.filejungle.com/f/mGBkxA/A..._XVID_DTRG.rar
Or
http://www.fileserve.com/file/E7BF4B..._XVID_DTRG.rar

450mb-iNTERCHANGEABLE:
http://www.filesonic.com/file/nhJrok....avi.part1.rar
http://www.filesonic.com/file/hjImi6....avi.part2.rar
http://www.filesonic.com/file/pZFUzZ....avi.part3.rar
Or
http://www.filejungle.com/f/gy7yqc/A....avi.part1.rar
http://www.filejungle.com/f/mr2fTj/A....avi.part2.rar
http://www.filejungle.com/f/FkSncU/A....avi.part3.rar
Or
http://www.fileserve.com/file/mPVXKQ....avi.part1.rar
http://www.fileserve.com/file/M4jFDy....avi.part2.rar
http://www.fileserve.com/file/kjcH3M....avi.part3.rar
Please-Say-Thanks-To-Keep-The-Topic-Alive.