Whats.Your.Number.2011.Unrated.DvDRip.Xvid-BHRG



iMDB :
http://www.imdb.com/title/tt0770703/

Synopsis:
A woman looks back at the past twenty men she’s had relationships with in her life and wonders if one of them might be her one true love.
- My Upload.
- Working 100%.
- No Password.
- Interchangeable Links.
- 10% Recovery Added.
- Language : English.


Fileserve :
http://www.fileserve.com/file/ddQBQt....Xvid-BHRG.rar

Filesonic :
http://www.filesonic.com/file/433639....Xvid-BHRG.rar

Filejungle :
http://www.filejungle.com/f/4pu7k9/W....Xvid-BHRG.rar

Uploaded :
http://ul.to/lby6seba/Whats.Your.Num....Xvid-BHRG.rar

PLEASE REPLY IF YOU LIKE MY POST!

SCREENSHOT :


NFO :
General
Complete name : Whats.Your.Number.2011.Unrated.DvDRip.Xvid-BHRG.avi
Format : AVI
Format/Info : Audio Video Interleave
File size : 842 MiB
Duration : 1h 57mn
Overall bit rate : 1 004 Kbps

Video
ID : 0
Format : MPEG-4 Visual
Format profile : Advanced [email protected]
Format settings, BVOP : 2
Format settings, QPel : No
Format settings, GMC : No warppoints
Format settings, Matrix : Default (H.263)
Codec ID : XVID
Codec ID/Hint : XviD
Duration : 1h 57mn
Bit rate : 870 Kbps
Width : 624 pixels
Height : 336 pixels
Display aspect ratio : 1.857
Frame rate : 23.976 fps
Color space : YUV
Chroma subsampling : 4:2:0
Bit depth : 8 bits
Scan type : Progressive
Compression mode : Lossy
Bits/(Pixel*Frame) : 0.173
Stream size : 730 MiB (87%)
Writing library : XviD 1.2.1 (UTC 2008-12-04)

Audio
ID : 1
Format : MPEG Audio
Format version : Version 1
Format profile : Layer 3
Mode : Joint stereo
Mode extension : MS Stereo
Codec ID : 55
Codec ID/Hint : MP3
Duration : 1h 57mn
Bit rate mode : Constant
Bit rate : 128 Kbps
Channel(s) : 2 channels
Sampling rate : 48.0 KHz
Compression mode : Lossy
Stream size : 107 MiB (13%)
Alignment : Aligned on interleaves
Interleave, duration : 167 ms (4.00 video frames)
Interleave, preload duration : 216 ms
Title : def-wyn-aand b added_new
Writing library : LAME3.98r
Encoding settings : -m j -V 4 -q 2 -lowpass 17 -b 128