Arthur Christmas 2011 TS x264 Feel-Free

iNFo:
http://www.imdb.com/title/tt1430607/
Format : MPEG-4
Format profile : Base Media
Codec ID : isom
File size : 1.24 GiB
Duration : 1h 31mn
Overall bit rate : 1 950 Kbps


Video
ID : 1
Format : AVC
Format/Info : Advanced Video Codec
Format profile : [email protected]
Format settings, CABAC : Yes
Format settings, ReFrames : 3 frames
Codec ID : avc1
Codec ID/Info : Advanced Video Coding
Duration : 1h 31mn
Bit rate mode : Variable
Bit rate : 1 500 Kbps
Maximum bit rate : 8 366 Kbps
Width : 624 pixels
Height : 264 pixels
Display aspect ratio : 2.35:1
Frame rate mode : Constant
Frame rate : 24.000 fps
Color space : YUV
Chroma subsampling : 4:2:0
Bit depth : 8 bits
Scan type : Progressive
Bits/(Pixel*Frame) : 0.379
Stream size : 982 MiB (77%)
Writing library : x264


Audio
ID : 2
Format : AAC
Format/Info : Advanced Audio Codec
Format version : Version 4
Format profile : LC
Format settings, SBR : No
Codec ID : 40
Duration : 1h 31mn
Bit rate mode : Variable
Bit rate : 444 Kbps
Maximum bit rate : 473 Kbps
Channel(s) : 6 channels
Channel positions : Front: L C R, Side: L R, LFE
Sampling rate : 48.0 KHz
Stream size : 290 MiB (23%)



1-LINK:
http://www.filesonic.com/file/432792....Feel-Free.rar
Or
http://www.filejungle.com/f/sqYvFX/A....Feel-Free.rar
Or
http://www.fileserve.com/file/PuRwPX....Feel-Free.rar

450mb-iNTERCHANGEABLE:
http://www.filesonic.com/file/432786....mp4.part1.rar
http://www.filesonic.com/file/432788....mp4.part2.rar
http://www.filesonic.com/file/432786....mp4.part3.rar
Or
http://www.filejungle.com/f/zcfbVG/A....mp4.part1.rar
http://www.filejungle.com/f/TW92AM/A....mp4.part2.rar
http://www.filejungle.com/f/kU9DnR/A....mp4.part3.rar
Or
http://www.fileserve.com/file/Q5Rvvq....mp4.part1.rar
http://www.fileserve.com/file/gas9jV....mp4.part2.rar
http://www.fileserve.com/file/Rwfmgm....mp4.part3.rar
Please-Say-Thanks-To-Keep-The-Topic-Alive.