The Sitter 2011 CAM XViD-DTRG

iNFo:
http://www.imdb.com/title/tt1366344/
Format : AVI
Format/Info : Audio Video Interleave
File size : 1.08 GiB
Duration : 1h 17mn
Overall bit rate : 2 008 Kbps
Writing application : VirtualDubMod 1.5.10.2 (build 2540/release)
Writing library : VirtualDubMod build 2540/release

Video
ID : 0
Format : MPEG-4 Visual
Format profile : Advanced [email protected]
Format settings, BVOP : 1
Format settings, QPel : No
Format settings, GMC : No warppoints
Format settings, Matrix : Default (H.263)
Muxing mode : Packed bitstream
Codec ID : XVID
Codec ID/Hint : XviD
Duration : 1h 17mn
Bit rate : 1 613 Kbps
Width : 622 pixels
Height : 320 pixels
Display aspect ratio : 1.944
Frame rate : 29.970 fps
Color space : YUV
Chroma subsampling : 4:2:0
Bit depth : 8 bits
Scan type : Progressive
Compression mode : Lossy
Bits/(Pixel*Frame) : 0.270
Stream size : 891 MiB (80%)
Writing library : XviD 64

Audio
ID : 1
Format : AC-3
Format/Info : Audio Coding 3
Mode extension : CM (complete main)
Codec ID : 2000
Duration : 1h 17mn
Bit rate mode : Constant
Bit rate : 384 Kbps
Channel(s) : 2 channels
Channel positions : Front: L R
Sampling rate : 48.0 KHz
Bit depth : 16 bits
Compression mode : Lossy
Stream size : 212 MiB (19%)
Alignment : Split accross interleaves
Interleave, duration : 33 ms (1.00 video frame)
Interleave, preload duration : 500 ms



1-LINK:
http://www.filejungle.com/f/eXAr56/T...D_DTRG.avi.rar
Or
http://www.filesonic.com/file/431300...D_DTRG.avi.rar
Or
http://www.fileserve.com/file/5YzHEd...D_DTRG.avi.rar
Please-Say-Thanks-To-Keep-The-Topic-Alive.