Hostel Part III 2011 DVDRip XVID AC3 HQ Hive-CM8

iNFo:
http://www.imdb.com/title/tt1255916/
General
Complete name : Hostel.Part.III.2011.DVDRip.XVID.AC3.HQ.Hive-CM8.avi
Format : AVI
Format/Info : Audio Video Interleave
File size : 1.32 GiB
Duration : 1h 27mn
Overall bit rate : 2 157 Kbps
Writing application : Nandub v1.0rc2
Writing library : Nandub build 1853/release

Video
ID : 0
Format : MPEG-4 Visual
Format profile : Advanced [email protected]
Format settings, BVOP : 2
Format settings, QPel : Yes
Format settings, GMC : No warppoints
Format settings, Matrix : Default (H.263)
Muxing mode : Packed bitstream
Codec ID : XVID
Codec ID/Hint : XviD
Duration : 1h 27mn
Bit rate : 1 700 Kbps
Width : 720 pixels
Height : 400 pixels
Display aspect ratio : 16:9
Frame rate : 23.976 fps
Color space : YUV
Chroma subsampling : 4:2:0
Bit depth : 8 bits
Scan type : Progressive
Compression mode : Lossy
Bits/(Pixel*Frame) : 0.246
Stream size : 1.04 GiB (79%)
Writing library : XviD 1.2.1 (UTC 2008-12-04)

Audio
ID : 1
Format : AC-3
Format/Info : Audio Coding 3
Mode extension : CM (complete main)
Codec ID : 2000
Duration : 1h 27mn
Bit rate mode : Constant
Bit rate : 448 Kbps
Channel(s) : 6 channels
Channel positions : Front: L C R, Side: L R, LFE
Sampling rate : 48.0 KHz
Bit depth : 16 bits
Compression mode : Lossy
Stream size : 281 MiB (21%)
Alignment : Split accross interleaves
Interleave, duration : 42 ms (1.00 video frame)
Interleave, preload duration : 500 ms



1-LINK:
http://www.filesonic.com/file/429949...Q.Hive-CM8.rar
Or
http://www.filejungle.com/f/xD26Gz/H...Q.Hive-CM8.rar
Or
http://www.fileserve.com/file/f9Tc3W...Q.Hive-CM8.rar

450mb-iNTERCHANGEABLE:
http://www.filesonic.com/file/429949....avi.part1.rar
http://www.filesonic.com/file/429949....avi.part2.rar
http://www.filesonic.com/file/429949....avi.part3.rar
Or
http://www.filejungle.com/f/ZgwTR9/H....avi.part1.rar
http://www.filejungle.com/f/hZdB7Q/H....avi.part2.rar
http://www.filejungle.com/f/WefP3Y/H....avi.part3.rar
Or
http://www.fileserve.com/file/BGmc2F....avi.part1.rar
http://www.fileserve.com/file/WBcwmf....avi.part2.rar
http://www.fileserve.com/file/kVVZAa....avi.part3.rar
Please-Say-Thanks-To-Keep-The-Topic-Alive.