Abduction 2011 BDRip XVID AC3 HQ Hive-CM8

iNFo:
http://www.imdb.com/title/tt1600195/
General
Complete name : Abduction.2011.BDRip.XVID.AC3.HQ.Hive-CM8.avi
Format : AVI
Format/Info : Audio Video Interleave
File size : 1.60 GiB
Duration : 1h 45mn
Overall bit rate : 2 157 Kbps
Writing application : Nandub v1.0rc2
Writing library : Nandub build 1853/release

Video
ID : 0
Format : MPEG-4 Visual
Format profile : Advanced [email protected]
Format settings, BVOP : 2
Format settings, QPel : Yes
Format settings, GMC : No warppoints
Format settings, Matrix : Default (H.263)
Muxing mode : Packed bitstream
Codec ID : XVID
Codec ID/Hint : XviD
Duration : 1h 45mn
Bit rate : 1 699 Kbps
Width : 720 pixels
Height : 304 pixels
Display aspect ratio : 2.40:1
Frame rate : 23.976 fps
Color space : YUV
Chroma subsampling : 4:2:0
Bit depth : 8 bits
Scan type : Progressive
Compression mode : Lossy
Bits/(Pixel*Frame) : 0.324
Stream size : 1.26 GiB (79%)
Writing library : XviD 1.2.1 (UTC 2008-12-04)

Audio
ID : 1
Format : AC-3
Format/Info : Audio Coding 3
Mode extension : CM (complete main)
Codec ID : 2000
Duration : 1h 45mn
Bit rate mode : Constant
Bit rate : 448 Kbps
Channel(s) : 6 channels
Channel positions : Front: L C R, Side: L R, LFE
Sampling rate : 48.0 KHz
Bit depth : 16 bits
Compression mode : Lossy
Stream size : 340 MiB (21%)
Alignment : Split accross interleaves
Interleave, duration : 42 ms (1.00 video frame)
Interleave, preload duration : 500 ms


1-LINK:
http://www.filesonic.com/file/429949...Q.Hive-CM8.rar
Or
http://www.filejungle.com/f/fDkr3E/A...Q.Hive-CM8.rar
Or
http://www.fileserve.com/file/ysXZ8d...Q.Hive-CM8.rar

450mb-iNTERCHANGEABLE:
http://www.filesonic.com/file/429949....avi.part1.rar
http://www.filesonic.com/file/429949....avi.part2.rar
http://www.filesonic.com/file/429949....avi.part3.rar
http://www.filesonic.com/file/429949....avi.part4.rar
Or
http://www.filejungle.com/f/hCqEdj/A....avi.part1.rar
http://www.filejungle.com/f/662cA3/A....avi.part2.rar
http://www.filejungle.com/f/9XnBz6/A....avi.part3.rar
http://www.filejungle.com/f/5jPjaQ/A....avi.part4.rar
Or
http://www.fileserve.com/file/34Hpam....avi.part1.rar
http://www.fileserve.com/file/5mPS3Y....avi.part2.rar
http://www.fileserve.com/file/rq2jVE....avi.part3.rar
http://www.fileserve.com/file/bHeYvA....avi.part4.rar
Please-Say-Thanks-To-Keep-The-Topic-Alive.