Arthur Christmas 2011 TS XViD-DTRG

iNFo:
http://www.imdb.com/title/tt1430607/
Format : AVI
Format/Info : Audio Video Interleave
File size : 1.06 GiB
Duration : 1h 31mn
Overall bit rate : 1 657 Kbps
Writing library : VirtualDub build 32842/release

Video
ID : 0
Format : MPEG-4 Visual
Format profile : Advanced [email protected]
Format settings, BVOP : 1
Format settings, QPel : No
Format settings, GMC : No warppoints
Format settings, Matrix : Default (H.263)
Muxing mode : Packed bitstream
Codec ID : XVID
Codec ID/Hint : XviD
Duration : 1h 31mn
Bit rate : 1 264 Kbps
Width : 730 pixels
Height : 304 pixels
Display aspect ratio : 2.40:1
Frame rate : 24.000 fps
Color space : YUV
Chroma subsampling : 4:2:0
Bit depth : 8 bits
Scan type : Progressive
Compression mode : Lossy
Bits/(Pixel*Frame) : 0.237
Stream size : 826 MiB (76%)
Writing library : XviD 64

Audio
ID : 1
Format : AC-3
Format/Info : Audio Coding 3
Mode extension : CM (complete main)
Codec ID : 2000
Duration : 1h 31mn
Bit rate mode : Constant
Bit rate : 384 Kbps
Channel(s) : 6 channels
Channel positions : Front: L C R, Side: L R, LFE
Sampling rate : 48.0 KHz
Bit depth : 16 bits
Compression mode : Lossy
Stream size : 251 MiB (23%)
Alignment : Aligned on interleaves
Interleave, duration : 42 ms (1.00 video frame)
Interleave, preload duration : 512 ms


1-LINK:
http://www.filesonic.com/file/429835...s_2011.avi.rar
Or
http://www.filejungle.com/f/CVXXgf/A...s_2011.avi.rar
Or
http://www.fileserve.com/file/xsqUMG...s_2011.avi.rar
Please-Say-Thanks-To-Keep-The-Topic-Alive.