Arthur Christmas 2011 720p TS XviD 5.1 AC3 - ILLUMINATI

iNFo:
http://www.imdb.com/title/tt1430607/
Format : MPEG-4 Visual
Format profile : Advanced [email protected]
Format settings, BVOP : 2
Format settings, QPel : No
Format settings, GMC : No warppoints
Format settings, Matrix : Default (H.263)
Muxing mode : Packed bitstream
Codec ID : XVID
Codec ID/Hint : XviD
Duration : 1h 31mn
Bit rate : 3 559 Kbps
Width : 1 280 pixels
Height : 544 pixels
Display aspect ratio : 2.35:1
Frame rate : 24.000 fps
Color space : YUV
Chroma subsampling : 4:2:0
Bit depth : 8 bits
Scan type : Progressive
Compression mode : Lossy
Bits/(Pixel*Frame) : 0.213
Stream size : 2.27 GiB (90%)
Writing library : XviD 64

Audio
ID : 1
Format : AC-3
Format/Info : Audio Coding 3
Mode extension : CM (complete main)
Codec ID : 2000
Duration : 1h 31mn
Bit rate mode : Constant
Bit rate : 384 Kbps
Channel(s) : 6 channels
Channel positions : Front: L C R, Side: L R, LFE
Sampling rate : 48.0 KHz
Bit depth : 16 bits
Compression mode : Lossy
Stream size : 251 MiB (10%)
Alignment : Aligned on interleaves
Interleave, duration : 42 ms (1.00 video frame)


1-LINK:
http://www.filesonic.com/file/429842...ILLUMINATI.rar

950mb-iNTERCHANGEABLE:
http://www.filesonic.com/file/429835....avi.part1.rar
http://www.filesonic.com/file/429835....avi.part2.rar
http://www.filesonic.com/file/429834....avi.part3.rar
Or
http://www.filejungle.com/f/XTZACv/A....avi.part1.rar
http://www.filejungle.com/f/mhEmJs/A....avi.part2.rar
http://www.filejungle.com/f/HUjz6k/A....avi.part3.rar
Or
http://www.fileserve.com/file/yWeGJR....avi.part1.rar
http://www.fileserve.com/file/knvGD7....avi.part2.rar
http://www.fileserve.com/file/sBaEYb....avi.part3.rar
Please-Say-Thanks-To-Keep-The-Topic-Alive.