Abduction.2011.BRRip.720p.x264.Feel-Free



iMDB :
http://www.imdb.com/title/tt1600195/

Synopsis:
A thriller centered on a young man who sets out to uncover the truth about his life after finding his baby photo on a missing persons website.
- My Upload.
- Working 100%.
- No Password.
- Interchangeable Links.
- 10% Recovery Added.
- Language : English.


Single Link :
http://www.filesonic.com/file/429016....Feel-Free.mp4

Fileserve :
http://www.fileserve.com/file/h2msPq....mp4.part1.rar
http://www.fileserve.com/file/eXVZJW....mp4.part2.rar
http://www.fileserve.com/file/8nCaaZ....mp4.part3.rar
http://www.fileserve.com/file/ADCNmu....mp4.part4.rar

Filesonic :
http://www.filesonic.com/file/429025....mp4.part1.rar
http://www.filesonic.com/file/429025....mp4.part2.rar
http://www.filesonic.com/file/429024....mp4.part3.rar
http://www.filesonic.com/file/429005....mp4.part4.rar

Filejungle :
http://www.filejungle.com/f/4gx6D2/A....mp4.part1.rar
http://www.filejungle.com/f/UFSKuF/A....mp4.part2.rar
http://www.filejungle.com/f/VfcX4S/A....mp4.part3.rar
http://www.filejungle.com/f/YbuVuc/A....mp4.part4.rar

Uploaded :
http://ul.to/2bd9fbgd/Abduction.2011....mp4.part1.rar
http://ul.to/c0i7bv5i/Abduction.2011....mp4.part2.rar
http://ul.to/eorhsb9l/Abduction.2011....mp4.part3.rar
http://ul.to/tis0bjxw/Abduction.2011....mp4.part4.rar

PLEASE REPLY IF YOU LIKE MY POST!

SCREENSHOT :


NFO :
General
Complete name : Abduction.2011.BRRip.720p.x264.Feel-Free.mp4
Format : MPEG-4
Format profile : Base Media
Codec ID : isom
File size : 2.14 GiB
Duration : 1h 45mn
Overall bit rate : 2 885 Kbps
Encoded date : UTC 2011-12-17 15:41:01
Tagged date : UTC 2011-12-17 15:41:01

Video
ID : 1
Format : AVC
Format/Info : Advanced Video Codec
Format profile : [email protected]
Format settings, CABAC : Yes
Format settings, ReFrames : 3 frames
Codec ID : avc1
Codec ID/Info : Advanced Video Coding
Duration : 1h 45mn
Bit rate mode : Variable
Bit rate : 2 500 Kbps
Maximum bit rate : 15.6 Mbps
Width : 1 280 pixels
Height : 528 pixels
Display aspect ratio : 2.40:1
Frame rate mode : Constant
Frame rate : 23.976 fps
Color space : YUV
Chroma subsampling : 4:2:0
Bit depth : 8 bits
Scan type : Progressive
Bits/(Pixel*Frame) : 0.154
Stream size : 1.81 GiB (85%)
Writing library : x264 core 75 r1251kMod e553a4c
Encoding settings : cabac=1 / ref=3 / deblock=1:0:0 / analyse=0x3:0x113 / me=umh / subme=7 / psy=1 / psy_rd=1.0:0.0 / mixed_ref=1 / me_range=12 / chroma_me=1 / trellis=2 / 8x8dct=1 / cqm=0 / deadzone=21,11 / chroma_qp_offset=-2 / threads=3 / nr=0 / decimate=1 / mbaff=0 / bframes=3 / b_pyramid=0 / b_adapt=2 / b_bias=0 / direct=1 / wpredb=1 / keyint=250 / keyint_min=25 / scenecut=40 / rc_lookahead=60 / rc=cbr / mbtree=1 / bitrate=2500 / ratetol=1.0 / qcomp=0.50 / qpmin=10 / qpmax=51 / qpstep=4 / vbv_maxrate=24000 / vbv_bufsize=24000 / ip_ratio=1.40 / aq=1:1.00
Encoded date : UTC 2011-12-17 15:41:01
Tagged date : UTC 2011-12-17 15:46:15

Audio
ID : 2
Format : AAC
Format/Info : Advanced Audio Codec
Format profile : LC
Codec ID : 40
Duration : 1h 45mn
Bit rate mode : Variable
Bit rate : 437 Kbps
Maximum bit rate : 551 Kbps
Channel(s) : 6 channels
Channel positions : Front: L C R, Side: L R, LFE
Sampling rate : 48.0 KHz
Compression mode : Lossy
Stream size : 332 MiB (15%)
Encoded date : UTC 2011-12-17 15:44:43
Tagged date : UTC 2011-12-17 15:46:15