The.Pool.Boys.2010.BluRay.720p.DTS.x264-CHD



iMDB :
http://www.imdb.com/title/tt0807028/

Synopsis:
A pool boy and a gardener turn an empty mansion into a home for women who belong to the world’s oldest profession.
- My Upload.
- Working 100%.
- No Password.
- Interchangeable Links.
- 10% Recovery Added.
- Language : English.


Single Link :
http://www.filesonic.com/file/428848...S.x264-CHD.mkv

Fileserve :
http://www.fileserve.com/file/Gc5X5T....mkv.part1.rar
http://www.fileserve.com/file/tKCSfm....mkv.part2.rar
http://www.fileserve.com/file/eh2gSp....mkv.part3.rar
http://www.fileserve.com/file/CNBFAQ....mkv.part4.rar
http://www.fileserve.com/file/2QvsrH....mkv.part5.rar

Filesonic :
http://www.filesonic.com/file/428849....mkv.part1.rar
http://www.filesonic.com/file/428849....mkv.part2.rar
http://www.filesonic.com/file/428849....mkv.part3.rar
http://www.filesonic.com/file/428849....mkv.part4.rar
http://www.filesonic.com/file/428849....mkv.part5.rar

Filejungle :
http://www.filejungle.com/f/aSX25E/T....mkv.part1.rar
http://www.filejungle.com/f/GgzXpG/T....mkv.part2.rar
http://www.filejungle.com/f/5UPdmG/T....mkv.part3.rar
http://www.filejungle.com/f/rxugDm/T....mkv.part4.rar
http://www.filejungle.com/f/Qykzmf/T....mkv.part5.rar

Uploaded :
http://ul.to/tt3t76dz/The.Pool.Boys.....mkv.part1.rar
http://ul.to/k12xo67n/The.Pool.Boys.....mkv.part2.rar
http://ul.to/tt3kxy9q/The.Pool.Boys.....mkv.part3.rar
http://ul.to/58o7kvjp/The.Pool.Boys.....mkv.part4.rar
http://ul.to/pqeotngn/The.Pool.Boys.....mkv.part5.rar

PLEASE REPLY IF YOU LIKE MY POST!

SCREENSHOT :


NFO :
General
Unique ID : 179626260299219030040841591982566558921 (0x8722C264D15597EDAC4E67ADF0124CC9)
Complete name : The.Pool.Boys.2010.BluRay.720p.DTS.x264-CHD.mkv
Format : Matroska
Format version : Version 2
File size : 3.93 GiB
Duration : 1h 28mn
Overall bit rate : 6 388 Kbps
Encoded date : UTC 2011-12-19 01:51:48
Writing application : mkvmerge v4.0.0 ('The Stars were mine') 编译于 Jun 6 2010 16:18:42
Writing library : libebml v1.0.0 + libmatroska v1.0.0

Video
ID : 1
Format : AVC
Format/Info : Advanced Video Codec
Format profile : [email protected]
Format settings, CABAC : Yes
Format settings, ReFrames : 9 frames
Codec ID : V_MPEG4/ISO/AVC
Duration : 1h 28mn
Bit rate : 4 878 Kbps
Width : 1 280 pixels
Height : 688 pixels
Display aspect ratio : 1.860
Frame rate : 23.976 fps
Color space : YUV
Chroma subsampling : 4:2:0
Bit depth : 8 bits
Scan type : Progressive
Bits/(Pixel*Frame) : 0.231
Stream size : 2.92 GiB (74%)
Writing library : x264 core 115 r2008 4c552d8
Encoding settings : cabac=1 / ref=9 / deblock=1:-3:-3 / analyse=0x3:0x113 / me=umh / subme=10 / psy=1 / psy_rd=1.10:0.15 / mixed_ref=1 / me_range=32 / chroma_me=1 / trellis=2 / 8x8dct=1 / cqm=2 / deadzone=21,11 / fast_pskip=0 / chroma_qp_offset=-2 / threads=12 / sliced_threads=0 / nr=0 / decimate=1 / interlaced=0 / bluray_compat=0 / constrained_intra=0 / bframes=6 / b_pyramid=2 / b_adapt=2 / b_bias=0 / direct=3 / weightb=1 / open_gop=0 / weightp=2 / keyint=250 / keyint_min=23 / scenecut=40 / intra_refresh=0 / rc_lookahead=60 / rc=2pass / mbtree=1 / bitrate=4878 / ratetol=1.0 / qcomp=0.60 / qpmin=1 / qpmax=63 / qpstep=4 / cplxblur=20.0 / qblur=0.5 / vbv_maxrate=40000 / vbv_bufsize=30000 / nal_hrd=none / ip_ratio=1.40 / aq=1:0.80
Language : English

Audio
ID : 2
Format : DTS
Format/Info : Digital Theater Systems
Codec ID : A_DTS
Duration : 1h 28mn
Bit rate mode : Constant
Bit rate : 1 510 Kbps
Channel(s) : 6 channels
Channel positions : Front: L C R, Side: L R, LFE
Sampling rate : 48.0 KHz
Bit depth : 24 bits
Compression mode : Lossy
Stream size : 951 MiB (24%)
Language : English