Across.The.Universe.2008.BluRay.720p.AC3.x264-CHD



iMDB :
http://www.imdb.com/title/tt0445922/

Synopsis:
The music of the Beatles and the Vietnam War form the backdrop for the romance between an upper-class American girl and a poor Liverpudlian artist.
- My Upload.
- Working 100%.
- No Password.
- Interchangeable Links.
- 10% Recovery Added.
- Language : English.


Fileserve :
http://www.fileserve.com/file/PgtDg3....mkv.part1.rar
http://www.fileserve.com/file/cuyezw....mkv.part2.rar
http://www.fileserve.com/file/TcDeYs....mkv.part3.rar
http://www.fileserve.com/file/DguZYp....mkv.part4.rar
http://www.fileserve.com/file/cMxBFq....mkv.part5.rar
http://www.fileserve.com/file/QED8gV....mkv.part6.rar
http://www.fileserve.com/file/8ZYGe9....mkv.part7.rar
http://www.fileserve.com/file/4tWUns....mkv.part8.rar

Filesonic :
http://www.filesonic.com/file/428851....mkv.part1.rar
http://www.filesonic.com/file/428855....mkv.part2.rar
http://www.filesonic.com/file/428857....mkv.part3.rar
http://www.filesonic.com/file/428857....mkv.part4.rar
http://www.filesonic.com/file/428858....mkv.part5.rar
http://www.filesonic.com/file/428858....mkv.part6.rar
http://www.filesonic.com/file/428859....mkv.part7.rar
http://www.filesonic.com/file/428859....mkv.part8.rar

Filejungle :
http://www.filejungle.com/f/Jhd4sE/A....mkv.part1.rar
http://www.filejungle.com/f/YTKjA7/A....mkv.part2.rar
http://www.filejungle.com/f/7Xq8dh/A....mkv.part3.rar
http://www.filejungle.com/f/CtYGc5/A....mkv.part4.rar
http://www.filejungle.com/f/2eBfGM/A....mkv.part5.rar
http://www.filejungle.com/f/3Pcpn6/A....mkv.part6.rar
http://www.filejungle.com/f/pW3d7k/A....mkv.part7.rar
http://www.filejungle.com/f/v6dTAg/A....mkv.part8.rar

Uploaded :
http://ul.to/lwloeklp/Across.The.Uni....mkv.part1.rar
http://ul.to/fg5xppgq/Across.The.Uni....mkv.part2.rar
http://ul.to/3ahb819h/Across.The.Uni....mkv.part3.rar
http://ul.to/hx5lqcnj/Across.The.Uni....mkv.part4.rar
http://ul.to/i31w076q/Across.The.Uni....mkv.part5.rar
http://ul.to/f3dtozrp/Across.The.Uni....mkv.part6.rar
http://ul.to/93q05alm/Across.The.Uni....mkv.part7.rar
http://ul.to/lrle9h7o/Across.The.Uni....mkv.part8.rar

PLEASE REPLY IF YOU LIKE MY POST!

SCREENSHOT :


NFO :
General
Unique ID : 222348278017452119307856952409719082247 (0xA746B87DF05AF1228C7FC78E88048D07)
Complete name : Across.The.Universe.2008.BluRay.720p.AC3.x264-CHD.mkv
Format : Matroska
File size : 6.53 GiB
Duration : 2h 13mn
Overall bit rate : 7 018 Kbps
Encoded date : UTC 2011-12-19 03:42:45
Writing application : mkvmerge v4.8.0 ('I Got The...') </: May 24 2011 03:12:58
Writing library : libebml v1.2.0 + libmatroska v1.1.0

Video
ID : 1
Format : AVC
Format/Info : Advanced Video Codec
Format profile : [email protected]
Format settings, CABAC : Yes
Format settings, ReFrames : 10 frames
Muxing mode : Header stripping
Codec ID : V_MPEG4/ISO/AVC
Duration : 2h 13mn
Bit rate : 6 569 Kbps
Width : 1 280 pixels
Height : 534 pixels
Display aspect ratio : 2.40:1
Frame rate : 23.976 fps
Color space : YUV
Chroma subsampling : 4:2:0
Bit depth : 8 bits
Scan type : Progressive
Bits/(Pixel*Frame) : 0.401
Stream size : 5.99 GiB (92%)
Title : [email protected]
Writing library : x264 core 116 r2074 2641b9e
Encoding settings : cabac=1 / ref=10 / deblock=1:-3:-3 / analyse=0x3:0x113 / me=umh / subme=10 / psy=1 / psy_rd=1.10:0.15 / mixed_ref=1 / me_range=32 / chroma_me=1 / trellis=2 / 8x8dct=1 / cqm=2 / deadzone=21,11 / fast_pskip=0 / chroma_qp_offset=-2 / threads=12 / sliced_threads=0 / nr=0 / decimate=1 / interlaced=0 / bluray_compat=0 / constrained_intra=0 / bframes=6 / b_pyramid=2 / b_adapt=2 / b_bias=0 / direct=3 / weightb=1 / open_gop=0 / weightp=2 / keyint=250 / keyint_min=23 / scenecut=40 / intra_refresh=0 / rc_lookahead=60 / rc=2pass / mbtree=1 / bitrate=6569 / ratetol=1.0 / qcomp=0.60 / qpmin=1 / qpmax=63 / qpstep=4 / cplxblur=20.0 / qblur=0.5 / vbv_maxrate=40000 / vbv_bufsize=40000 / nal_hrd=none / ip_ratio=1.40 / aq=1:0.90
Language : English

Audio
ID : 2
Format : AC-3
Format/Info : Audio Coding 3
Mode extension : CM (complete main)
Muxing mode : Header stripping
Codec ID : A_AC3
Duration : 2h 13mn
Bit rate mode : Constant
Bit rate : 448 Kbps
Channel(s) : 6 channels
Channel positions : Front: L C R, Side: L R, LFE
Sampling rate : 48.0 KHz
Bit depth : 16 bits
Compression mode : Lossy
Stream size : 427 MiB (6%)
Title : English AC3 5.1 448Kbps
Language : English