Space Dogs 2010 RC BDRip XVID AC3 5.1 HQ Hive-CM8

iNFo:
http://www.imdb.com/title/tt1272051/
General
Complete name : Space.Dogs.2010.RC.BDRip.XVID.AC3.5.1.HQ.Hive-CM8.avi
Format : AVI
Format/Info : Audio Video Interleave
File size : 1.45 GiB
Duration : 1h 28mn
Overall bit rate : 2 357 Kbps
Writing application : Nandub v1.0rc2
Writing library : Nandub build 1853/release

Video
ID : 0
Format : MPEG-4 Visual
Format profile : Advanced [email protected]
Format settings, BVOP : 2
Format settings, QPel : Yes
Format settings, GMC : No warppoints
Format settings, Matrix : Default (H.263)
Muxing mode : Packed bitstream
Codec ID : XVID
Codec ID/Hint : XviD
Duration : 1h 28mn
Bit rate : 1 900 Kbps
Width : 720 pixels
Height : 400 pixels
Display aspect ratio : 16:9
Frame rate : 23.976 fps
Color space : YUV
Chroma subsampling : 4:2:0
Bit depth : 8 bits
Scan type : Progressive
Compression mode : Lossy
Bits/(Pixel*Frame) : 0.275
Stream size : 1.17 GiB (81%)
Writing library : XviD 1.2.1 (UTC 2008-12-04)

Audio
ID : 1
Format : AC-3
Format/Info : Audio Coding 3
Mode extension : CM (complete main)
Codec ID : 2000
Duration : 1h 28mn
Bit rate mode : Constant
Bit rate : 448 Kbps
Channel(s) : 6 channels
Channel positions : Front: L C R, Side: L R, LFE
Sampling rate : 48.0 KHz
Bit depth : 16 bits
Compression mode : Lossy
Delay relative to video : 70ms
Stream size : 282 MiB (19%)
Alignment : Split accross interleaves
Interleave, duration : 42 ms (1.00 video frame)
Interleave, preload duration : 500 ms



1-LINK:
http://www.filesonic.com/file/428670...Q.Hive-CM8.rar
Or
http://www.filejungle.com/f/9nTpss/S...Q.Hive-CM8.rar
Or
http://www.fileserve.com/file/xtHfUf...Q.Hive-CM8.rar

450mb-iNTERCHANGEABLE:
http://www.filesonic.com/file/428669....avi.part1.rar
http://www.filesonic.com/file/428669....avi.part2.rar
http://www.filesonic.com/file/428669....avi.part3.rar
http://www.filesonic.com/file/428669....avi.part4.rar
Or
http://www.filejungle.com/f/zW7GMy/S....avi.part1.rar
http://www.filejungle.com/f/Swa7fk/S....avi.part2.rar
http://www.filejungle.com/f/NmUH9v/S....avi.part3.rar
http://www.filejungle.com/f/y2GzEg/S....avi.part4.rar
Or
http://www.fileserve.com/file/uMMv85....avi.part1.rar
http://www.fileserve.com/file/TdfKXf....avi.part2.rar
http://www.fileserve.com/file/FqP7kk....avi.part3.rar
http://www.fileserve.com/file/Yyv9Qx....avi.part4.rar
Please-Say-Thanks-To-Keep-The-Topic-Alive.