Pressed 2011 DVDRip XVID AC3 HQ Hive-CM8

iNFo:
http://www.imdb.com/title/tt1716759/
General
Complete name : Pressed.2011.DVDRip.XVID.AC3.HQ.Hive-CM8.avi
Format : AVI
Format/Info : Audio Video Interleave
File size : 1.43 GiB
Duration : 1h 45mn
Overall bit rate : 1 938 Kbps
Writing application : Nandub v1.0rc2
Writing library : Nandub build 1853/release

Video
ID : 0
Format : MPEG-4 Visual
Format profile : Advanced [email protected]
Format settings, BVOP : 2
Format settings, QPel : Yes
Format settings, GMC : No warppoints
Format settings, Matrix : Default (H.263)
Muxing mode : Packed bitstream
Codec ID : XVID
Codec ID/Hint : XviD
Duration : 1h 45mn
Bit rate : 1 702 Kbps
Width : 656 pixels
Height : 480 pixels
Display aspect ratio : 4:3
Frame rate : 29.970 fps
Color space : YUV
Chroma subsampling : 4:2:0
Bit depth : 8 bits
Scan type : Progressive
Compression mode : Lossy
Bits/(Pixel*Frame) : 0.180
Stream size : 1.25 GiB (88%)
Writing library : XviD 1.2.1 (UTC 2008-12-04)

Audio
ID : 1
Format : AC-3
Format/Info : Audio Coding 3
Mode extension : CM (complete main)
Codec ID : 2000
Duration : 1h 45mn
Bit rate mode : Constant
Bit rate : 224 Kbps
Channel(s) : 2 channels
Channel positions : Front: L R
Sampling rate : 48.0 KHz
Bit depth : 16 bits
Compression mode : Lossy
Stream size : 168 MiB (12%)
Alignment : Split accross interleaves
Interleave, duration : 33 ms (1.00 video frame)
Interleave, preload duration : 500 ms



1-LINK:
http://www.filesonic.com/file/428669...Q.Hive-CM8.rar
Or
http://www.filejungle.com/f/SVWmXt/P...Q.Hive-CM8.rar
Or
http://www.fileserve.com/file/QXDaCQ...Q.Hive-CM8.rar

450mb-iNTERCHANGEABLE:
http://www.filesonic.com/file/428669....avi.part1.rar
http://www.filesonic.com/file/428669....avi.part2.rar
http://www.filesonic.com/file/428669....avi.part3.rar
http://www.filesonic.com/file/428669....avi.part4.rar
Or
http://www.filejungle.com/f/TCkmhj/P....avi.part1.rar
http://www.filejungle.com/f/QPmmKS/P....avi.part2.rar
http://www.filejungle.com/f/MNCT8v/P....avi.part3.rar
http://www.filejungle.com/f/fyBx78/P....avi.part4.rar
Or
http://www.fileserve.com/file/wcUq9w....avi.part1.rar
http://www.fileserve.com/file/CwjpKr....avi.part2.rar
http://www.fileserve.com/file/m3Qhew....avi.part3.rar
http://www.fileserve.com/file/ypGn8P....avi.part4.rar
Please-Say-Thanks-To-Keep-The-Topic-Alive.