The.President.2011.DVDRip.XviD-EXViD



iMDB :
http://www.imdb.com/title/tt1727782/

Synopsis:
A political comedy about an illegal Morrocan who makes it to President of the Netherlands. As we follow his unlikely rise and selfsought fall, Joes learns that it’s easy to win the support of the people, but to rule them is a whole other story.
- My Upload.
- Working 100%.
- No Password.
- Interchangeable Links.
- 10% Recovery Added.
- Language : Dutch.
- Subs : English Inside.


Fileserve :
http://www.fileserve.com/file/ZwWMKn...XviD-EXViD.rar

Filesonic :
http://www.filesonic.com/file/426174...XviD-EXViD.rar

Filejungle :
http://www.filejungle.com/f/5sZKa7/T...XviD-EXViD.rar

Uploaded :
http://ul.to/wtun6pcd/The.President....XviD-EXViD.rar

PLEASE REPLY IF YOU LIKE MY POST!

SCREENSHOT :


NFO :

ÜÛÛÛÛÛÛÛÛÛÛÛÛÛÛÛÛÛÛÛÛÛÛÛÛÛÛÛÛÛÛÛÛÛÛÛÛÛÛÛÛÛÛÛÛÛÛÛÛÛÛÛÛÛÛÛÛÛÛÛÛÛÛÛÛÛÛÛÛÛÛÛÛÛÛÛÛÛÛÛÛÛÛÛÛÛÛÛÛÛÛÜ
ÛÛÛÛÛÛÛÛÛÛÛÛÛÛÛÛÛÛÛÛÛÛÛÛÛÛÛÛÛÛÛÛÛÛÛÛÛÛÛÛÛÛÛÛÛÛÛÛÛÛÛÛÛÛÛÛÛÛÛÛÛÛÛÛÛÛÛÛÛÛÛÛÛÛÛÛÛÛÛÛÛÛÛÛÛÛÛÛÛÛÛÛÛÛ
ÛÛÛÛÛÛÛÛÛÛÛÛÛÛÛÛÛÛÛÛÛÛÛÛÛÛÛÛÛÛÛÛÛÛÛÛÛÛÛÛÛÛÛÛÛÛÛÛÛÛÛÛÛÛÛÛÛÛÛÛÛÛÛÛÛÛÛÛÛÛÛÛÛÛÛÛÛÛÛÛÛÛÛÛÛÛÛÛÛÛÛÛÛÛ
Û ÜÜÜÜÜÜÜÜÜÜÜÜÜÜÜÜÜÜÜÜÜÜÜÜÜÜÜÜÜÜÜÜÜÜÜÜÜÜÜÜÜÜÜÜÜÜÜÜÜÜÜÜÜÜÜÜÜÜÜÜÜÜÜÜÜÜÜÜÜÜÜÜÜÜÜÜÜÜÜÜÜÜÜÜÜÜÜÜÜÜ Û
Û ÛÛÛÛÛÛÛÛÛÛÛÛÛÛÛÛÛÛÛÛÛÛÛÛÛÛÛÛÛÛÛÛÛÛÛÛÛÛÛÛÛÛÛÛÛÛÛÛÛÛÛÛÛÛÛÛÛÛÛÛÛÛÛÛÛÛÛÛÛÛÛÛÛÛÛÛÛÛÛÛÛÛÛÛÛÛÛÛÛÛ Û
ÜÜÛÛÛÛÛÛÛÛÛÛÛÛÛÛÛÛÛÛÛÛÛÛÛÛÛÛÛÛÛÛÛÛÛÛÛÛÛÛÛÛÛÛÛÛÛÛÛÛÛÛÛÛÛÛÛÛÛÛÛÛÛÛÛÛÛÛÛÛÛÛÛÛÛÛÛÛÛÛÛÛÛÛÛÛÛÛÛÛÛÛÜÜ
ÛÛÛÛÛÛÛÛÛÛÛÛÛÛÛÛÛÛÛÛÛÛÛÛÛÛÛÛÛÛÛÛÛÛÛÛÛÛÛÛÛÛÛÛÛÛÛÛÛÛÛÛÛÛÛÛÛÛÛÛÛÛÛÛÛÛÛÛÛÛÛÛÛÛÛÛÛÛÛÛÛÛÛÛÛÛÛÛÛÛÛÛÛÛ
ÛÛÛÛÛÛÛÛÛ°°°°°°°°°°°°°°°°ÛÛÛÛ ÛÛÛÛ°°°°°°°°°°°°°°°°ÛÛÛÛÛÛÛÛÛ
ÛÛÛÛÛÛÛÛ°°°°°°°°°°°°°°°°°ÛÛÛÛ ÛÛÛÛ°°°°°°°°°°°°°°°°°ÛÛÛÛÛÛÛÛ
ÛÛÛÛÛÛÛ°°°°°°°°°°°°°°°°°°ÛÛÛÛ EXVID ÛÛÛÛ°°°°°°°°°°°°°°°°°°ÛÛÛÛÛÛÛ
ÛÛÛÛÛÛÛ°°°°°°°°°°°°°°ÛÛÛÛÛÛÛÛ ÛÛÛÛÛÛÛÛ°°°°°°°°°°°°°°ÛÛÛÛÛÛÛ
ÛÛÛÛÛÛÛ°°°°°°°°°°°°°ÛÛÛÛÛÛÛÛÛ ßßßßßßßßßßßßßßßßßßßßßßßßßßßßßßßß ÛÛÛÛÛÛÛÛÛ°°°°°°°°°°°°°ÛÛÛÛÛÛÛ
ÛÛÛÛÛÛ°°°°°°°°°°°°°ÛÛÛÛÛÛÛÛÛÛ ÛÛÛÛÛÛÛÛÛÛ°°°°°°°°°°°°°ÛÛÛÛÛÛ
ÛÛÛÛÛÛ°°°°°°°°°°°°ÛÛÛÛÛÛÛÛÛÛÛ Filled the Archives ÛÛÛÛÛÛÛÛÛÛÛ°°°°°°°°°°°°ÛÛÛÛÛÛ
ÛÛÛÛÛÛ°°°°°°°°°°°°ÛÛÛÛÛÛÛÛÛÛÛ ÛÛÛÛÛÛÛÛÛÛÛ°°°°°°°°°°°°ÛÛÛÛÛÛ
ÛÛÛÛÛÛ°°°°°°°°°°°°ÛÛÛÛÛÛÛÛÛÛÛ ßßßßßßßßßßßßßßßßßßßßßßßßßßßßßßßß ÛÛÛÛÛÛÛÛÛÛÛ°°°°°°°°°°°°ÛÛÛÛÛÛ
ÛÛÛÛÛÛ°°°°°°°°°°°°ÛÛÛÛÛÛÛÛÛÛÛ ÛÛÛÛÛÛÛÛÛÛÛ°°°°°°°°°°°°ÛÛÛÛÛÛ
ÛÛÛÛÛÛ°°°°°°°°°°°°ÛÛÛÛÛÛÛÛÛÛÛ With: ÛÛÛÛÛÛÛÛÛÛÛ°°°°°°°°°°°°ÛÛÛÛÛÛ
ÛÛÛÛÛÛ°°°°°°°°°°°°ÛÛÛÛÛÛÛÛÛÛÛ ÛÛÛÛÛÛÛÛÛÛÛ°°°°°°°°°°°°ÛÛÛÛÛÛ
ÛÛÛÛÛÛ°°°°°°°°°°°°ÛÛÛÛÛÛÛÛÛÛÛ ßßßßßßßßßßßßßßßßßßßßßßßßßßßßßßßß ÛÛÛÛÛÛÛÛÛÛÛ°°°°°°°°°°°°ÛÛÛÛÛÛ
ÛÛÛÛÛÛÛ°°°°°°°°°°°°ÛÛÛÛÛÛÛÛÛÛ ÛÛÛÛÛÛÛÛÛÛ°°°°°°°°°°°°ÛÛÛÛÛÛÛ
ÛÛÛÛÛÛÛ°°°°°°°°°°°°°ÛÛÛÛÛÛÛÛÛ ² ²²²² ÛÛÛÛÛÛÛÛÛ°°°°°°°°°°°°°ÛÛÛÛÛÛÛ
ÛÛÛÛÛÛÛ°°°°°°°°°°°°°°ÛÛÛÛÛÛÛÛ ²² ²²² E240 ÛÛÛÛÛÛÛÛ°°°°°°°°°°°°°°ÛÛÛÛÛÛÛ
ÛÛÛÛÛÛÛ°°°°°°°°°°°°°°°°°°ÛÛÛÛ ²²² ²² ÛÛÛÛ°°°°°°°°°°°°°°°°°°ÛÛÛÛÛÛÛ
ÛÛÛÛÛÛÛÛ°°°°°°°°°°°°°°°°°ÛÛÛÛ ²²²² ² SP (C) 2009 ÛÛÛÛ°°°°°°°°°°°°°°°°°ÛÛÛÛÛÛÛÛ
ÛÛÛÛÛÛÛÛÛ°°°°°°°°°°°°°°°°ÛÛÛÛ ÛÛÛÛ°°°°°°°°°°°°°°°°ÛÛÛÛÛÛÛÛÛ
ÛÛÛÛÛÛÛÛÛÛÛÛÛÛÛÛÛÛÛÛÛÛÛÛÛÛÛÛÛÛÛÛÛÛÛÛÛÛÛÛÛÛÛÛÛÛÛÛÛÛÛÛÛÛÛÛÛÛÛÛÛÛÛÛÛÛÛÛÛÛÛÛÛÛÛÛÛÛÛÛÛÛÛÛÛÛÛÛÛÛÛÛÛÛ
ÛÛÛÛÛÛÛÛÛÛÛÛÛÛÛÛÛÛÛÛÛÛÛÛÛÛÛÛÛÛÛÛÛÛÛÛÛÛÛÛÛÛÛÛÛÛÛÛÛÛÛÛÛÛÛÛÛÛÛÛÛÛÛÛÛÛÛÛÛÛÛÛÛÛÛÛÛÛÛÛÛÛÛÛÛÛÛÛÛÛÛÛÛÛ
ÛÛÛÛÛÛÛÛÛÛÛÛÛÛÛÛÛÛÛÛÛÛÛÛÛÛÛÛÛÛÛÛÛÛÛÛÛÛÛÛÛÛÛÛÛÛÛÛÛÛÛÛÛÛÛÛÛÛÛÛÛÛÛÛÛÛÛÛÛÛÛÛÛÛÛÛÛÛÛÛÛÛÛÛÛÛÛÛÛÛÛÛÛÛ
ÛÛÛÛßÛÛÛÛÛÛÛ ÛÛÛÛÛ
ÛÛÛÛÜÛÛÛÛÛÛÛ ÛÛÛÛ
ÛÛÛÛÛÛÛÛÛÛÛÛ The.President.2011.DVDRip.XviD-EXViD ÛÛÛ
ÛÛÛÛÛÛÛÛÛÛÛÛ ÛÛÛÛ
ÛÛÛÛÛÛÛÛÛÛÛÛ ÛÛÛÛÛ
ÛÛÛÛÛÛÛÛÛÛÛÛÛÛÛÛÛÛÛÛÛÛÛÛÛÛÛÛÛÛÛÛÛÛÛÛÛÛÛÛÛÛÛÛÛÛÛÛÛÛÛÛÛÛÛÛÛÛÛÛÛÛÛÛÛÛÛÛÛÛÛÛÛÛÛÛÛÛÛÛÛÛÛÛÛÛÛÛÛÛÛÛÛÛ

EXViD aims to iNTERNAL those releases which have been lost in the archives.
EXViD aims to PRE non-internal releases which have poor sources and are likely skipped by others.

http://www.imdb.com/title/tt1727782/
Subtitles: NL FD, EN
Date: 2011.12

Director: Erik de Bruyn

Genres: Comedy

Plot:
A political comedy about an illegal Morrocan who makes it to President of the Netherlands.
As we follow his unlikely rise and selfsought fall, Joes learns that it's easy to win the support
of the people, but to rule them is a whole other story.

Cast:
Achmed Akkabi ... Joes
Najib Amhali ... Hamid
Charlie Dagelet ... Mila
Dirk Zeelenberg ... Vlonder
Rosa Reuten ... Treesters
Ton Kas ... Aart
Frank Lammers ... Boyko
Matthias Schoenaerts ... Krasimir
Peer Mascini ... Butler
Ruben van der Meer ... Presentator
Erik de Bruyn ... Gunman
Rolf Dekens ... TV cameraman
David Higginson ... Night club visitor
Dirk-Jan Kerkkamp ... Journalist
Bob Wilbers ... Journalist

Stats:
Format : AVI
Format/Info : Audio Video Interleave
File size : 700 MiB
Duration : 1h 29mn
Overall bit rate : 1 089 Kbps
Writing application : VirtualDubMod 1.5.10.2 (build 2540/release)
Writing library : VirtualDubMod build 2540/release

Video
ID : 0
Format : MPEG-4 Visual
Format profile : Advanced [email protected]
Format settings, BVOP : Yes
Format settings, QPel : No
Format settings, GMC : No warppoints
Format settings, Matrix : Default (H.263)
Muxing mode : Packed bitstream
Codec ID : XVID
Codec ID/Hint : XviD
Duration : 1h 29mn
Bit rate : 955 Kbps
Width : 640 pixels
Height : 272 pixels
Display aspect ratio : 2.35:1
Frame rate : 25.000 fps
Color space : YUV
Chroma subsampling : 4:2:0
Bit depth : 8 bits
Scan type : Progressive
Bits/(Pixel*Frame) : 0.219
Stream size : 613 MiB (88%)
Writing library : XviD 62

Audio
ID : 1
Format : MPEG Audio
Format version : Version 1
Format profile : Layer 3
Mode : Joint stereo
Mode extension : MS Stereo
Codec ID : 55
Codec ID/Hint : MP3
Duration : 1h 29mn
Bit rate mode : Variable
Bit rate : 121 Kbps
Nominal bit rate : 128 Kbps
Channel(s) : 2 channels
Sampling rate : 48.0 KHz
Stream size : 77.8 MiB (11%)
Alignment : Aligned on interleaves
Interleave, duration : 24 ms (0.60 video frame)
Interleave, preload duration : 507 ms
Writing library : LAME3.98r
Encoding settings : -m j -V 4 -q 2 -lowpass 17 --abr 128




Release notes:
enjoy!

Looking for:
75TB+ Archives
DUTCH/FLEMiSH Archives

Greets: CRBS EPiSODE FiCO FLS iLS KLASSiGER LiPSYNC MADE NODLABS RUNNER SPRiNTER

ÛÛÛÛÛÛÛÛÛÛÛÛÛÛÛÛÛÛÛÛÛÛÛÛÛÛÛÛÛÛÛÛÛÛÛÛÛÛÛÛÛÛÛÛÛÛÛÛÛÛÛÛÛÛÛÛÛÛÛÛÛÛÛÛÛÛÛÛÛÛÛÛÛÛÛÛÛÛÛÛÛÛÛÛÛÛÛÛÛÛÛÛÛÛ
ASCII DONE BY XX^NFO 2oo9