New Years Eve 2011 TS READNFO XviD-26K

iNFo:
http://www.imdb.com/title/tt1598822/
Format : AVI
Format/Info : Audio Video Interleave
File size : 973 MiB
Duration : 1h 47mn
Overall bit rate : 1 268 Kbps

Video
ID : 0
Format : MPEG-4 Visual
Format profile : Advanced [email protected]
Format settings, BVOP : 2
Format settings, QPel : No
Format settings, GMC : No warppoints
Format settings, Matrix : Default (H.263)
Codec ID : XVID
Codec ID/Hint : XviD
Duration : 1h 47mn
Bit rate : 1 000 Kbps
Width : 752 pixels
Height : 328 pixels
Display aspect ratio : 2.25:1
Frame rate : 23.000 fps
Color space : YUV
Chroma subsampling : 4:2:0
Bit depth : 8 bits
Scan type : Progressive
Compression mode : Lossy
Bits/(Pixel*Frame) : 0.176
Stream size : 767 MiB (79%)
Writing library : XviD 63

Audio
ID : 1
Format : MPEG Audio
Format version : Version 1
Format profile : Layer 3
Codec ID : 55
Codec ID/Hint : MP3
Duration : 1h 47mn
Bit rate mode : Constant
Bit rate : 256 Kbps
Channel(s) : 2 channels
Sampling rate : 44.1 KHz
Compression mode : Lossy
Stream size : 196 MiB (20%)
Alignment : Split accross interleaves
Interleave, duration : 26 ms (0.60 video frame)
Writing library : LAME



1-LINK:
http://www.filesonic.com/file/425949...iD-26K.avi.rar
Or
http://www.filejungle.com/f/RGdHWM/N...iD-26K.avi.rar
Or
http://www.fileserve.com/file/mYMrbn...iD-26K.avi.rar
Please-Say-Thanks-To-Keep-The-Topic-Alive.