Mission Impossible Ghost Protocol 2011 TS READNFO XviD-26K

iNFo:
http://www.imdb.com/title/tt1229238/
Format : AVI
Format/Info : Audio Video Interleave
File size : 1.10 GiB
Duration : 2h 4mn
Overall bit rate : 1 268 Kbps

Video
ID : 0
Format : MPEG-4 Visual
Format profile : Advanced [email protected]
Format settings, BVOP : 2
Format settings, QPel : No
Format settings, GMC : No warppoints
Format settings, Matrix : Default (H.263)
Codec ID : XVID
Codec ID/Hint : XviD
Duration : 2h 4mn
Bit rate : 1 000 Kbps
Width : 656 pixels
Height : 238 pixels
Display aspect ratio : 2.756
Frame rate : 23.000 fps
Color space : YUV
Chroma subsampling : 4:2:0
Bit depth : 8 bits
Scan type : Progressive
Compression mode : Lossy
Bits/(Pixel*Frame) : 0.278
Stream size : 889 MiB (79%)
Writing library : XviD 63

Audio
ID : 1
Format : MPEG Audio
Format version : Version 1
Format profile : Layer 3
Codec ID : 55
Codec ID/Hint : MP3
Duration : 2h 4mn
Bit rate mode : Constant
Bit rate : 256 Kbps
Channel(s) : 2 channels
Sampling rate : 44.1 KHz
Compression mode : Lossy
Stream size : 228 MiB (20%)
Alignment : Split accross interleaves
Interleave, duration : 26 ms (0.60 video frame)
Writing library : LAME3.98



1-LINK:
http://www.filesonic.com/file/425949..._P_2011_TS.rar
Or
http://www.filejungle.com/f/uuuChY/M_I_G_P_2011_TS.rar
Or
http://www.fileserve.com/file/Vxt23N..._P_2011_TS.rar

450mb-iNTERCHANGEABLE:
http://www.filesonic.com/file/425949....avi.part1.rar
http://www.filesonic.com/file/425949....avi.part2.rar
http://www.filesonic.com/file/425949....avi.part3.rar
Or
http://www.filejungle.com/f/w72f3W/M....avi.part1.rar
http://www.filejungle.com/f/RBUfqF/M....avi.part2.rar
http://www.filejungle.com/f/BcrekJ/M....avi.part3.rar
Or
http://www.fileserve.com/file/usVdWC....avi.part1.rar
http://www.fileserve.com/file/zReNPA....avi.part2.rar
http://www.fileserve.com/file/k7UtCK....avi.part3.rar
Please-Say-Thanks-To-Keep-The-Topic-Alive.