The Family Tree 2011 BDRip XVID AC3 HQ Hive-CM8

iNFo:
http://www.imdb.com/title/tt1175713/
General
Complete name : The.Family.Tree.2011.BDRip.XVID.AC3.HQ.Hive-CM8.avi
Format : AVI
Format/Info : Audio Video Interleave
File size : 1.32 GiB
Duration : 1h 30mn
Overall bit rate : 2 093 Kbps
Writing application : Nandub v1.0rc2
Writing library : Nandub build 1853/release

Video
ID : 0
Format : MPEG-4 Visual
Format profile : Advanced [email protected]
Format settings, BVOP : 1
Format settings, QPel : Yes
Format settings, GMC : No warppoints
Format settings, Matrix : Default (H.263)
Muxing mode : Packed bitstream
Codec ID : XVID
Codec ID/Hint : XviD
Duration : 1h 30mn
Bit rate : 1 700 Kbps
Width : 720 pixels
Height : 304 pixels
Display aspect ratio : 2.35:1
Frame rate : 23.976 fps
Color space : YUV
Chroma subsampling : 4:2:0
Bit depth : 8 bits
Scan type : Progressive
Compression mode : Lossy
Bits/(Pixel*Frame) : 0.324
Stream size : 1.07 GiB (81%)
Writing library : XviD 1.2.1 (UTC 2008-12-04)

Audio
ID : 1
Format : AC-3
Format/Info : Audio Coding 3
Mode extension : CM (complete main)
Codec ID : 2000
Duration : 1h 30mn
Bit rate mode : Constant
Bit rate : 384 Kbps
Channel(s) : 6 channels
Channel positions : Front: L C R, Side: L R, LFE
Sampling rate : 48.0 KHz
Bit depth : 16 bits
Compression mode : Lossy
Stream size : 248 MiB (18%)
Alignment : Split accross interleaves
Interleave, duration : 42 ms (1.00 video frame)
Interleave, preload duration : 500 ms



1-LINK:
http://www.filesonic.com/file/425901...Q.Hive-CM8.rar
Or
http://www.filejungle.com/f/E3unWU/T...Q.Hive-CM8.rar
Or
http://www.fileserve.com/file/EMYBRE...Q.Hive-CM8.rar

450mb-iNTERCHANGEABLE:
http://www.filesonic.com/file/425898....avi.part1.rar
http://www.filesonic.com/file/425898....avi.part2.rar
http://www.filesonic.com/file/425900....avi.part3.rar
Or
http://www.filejungle.com/f/QSfk2v/T....avi.part1.rar
http://www.filejungle.com/f/aeqe2K/T....avi.part2.rar
http://www.filejungle.com/f/9epFxU/T....avi.part3.rar
Or
http://www.fileserve.com/file/wB62WQ....avi.part1.rar
http://www.fileserve.com/file/nHAQvu....avi.part2.rar
http://www.fileserve.com/file/r96hea....avi.part3.rar
Please-Say-Thanks-To-Keep-The-Topic-Alive.