Perfect Sense 2011 R5 DVDRip XVID AC3 HQ Hive-CM8

iNFo:
http://www.imdb.com/title/tt1439572/
General
Complete name : Perfect.Sense.2011.R5.DVDRip.XVID.AC3.HQ.Hive-CM8.avi
Format : AVI
Format/Info : Audio Video Interleave
File size : 1.21 GiB
Duration : 1h 28mn
Overall bit rate : 1 965 Kbps
Writing application : Nandub v1.0rc2
Writing library : Nandub build 1853/release

Video
ID : 0
Format : MPEG-4 Visual
Format profile : Advanced [email protected]
Format settings, BVOP : 2
Format settings, QPel : Yes
Format settings, GMC : No warppoints
Format settings, Matrix : Default (H.263)
Muxing mode : Packed bitstream
Codec ID : XVID
Codec ID/Hint : XviD
Duration : 1h 28mn
Bit rate : 1 700 Kbps
Width : 720 pixels
Height : 304 pixels
Display aspect ratio : 2.35:1
Frame rate : 25.000 fps
Color space : YUV
Chroma subsampling : 4:2:0
Bit depth : 8 bits
Scan type : Progressive
Compression mode : Lossy
Bits/(Pixel*Frame) : 0.311
Stream size : 1.05 GiB (86%)
Writing library : XviD 1.2.1 (UTC 2008-12-04)

Audio
ID : 1
Format : AC-3
Format/Info : Audio Coding 3
Mode extension : CM (complete main)
Codec ID : 2000
Duration : 1h 28mn
Bit rate mode : Constant
Bit rate : 256 Kbps
Channel(s) : 6 channels
Channel positions : Front: L C R, Side: L R, LFE
Sampling rate : 48.0 KHz
Bit depth : 16 bits
Compression mode : Lossy
Stream size : 162 MiB (13%)
Alignment : Split accross interleaves
Interleave, duration : 40 ms (1.00 video frame)
Interleave, preload duration : 500 ms


1-LINK:
http://www.filesonic.com/file/425901...Q.Hive-CM8.rar
Or
http://www.filejungle.com/f/R5nZTD/P...Q.Hive-CM8.rar
Or
http://www.fileserve.com/file/Mvwsqv...Q.Hive-CM8.rar

450mb-iNTERCHANGEABLE:
http://www.filesonic.com/file/425901....avi.part1.rar
http://www.filesonic.com/file/425901....avi.part2.rar
http://www.filesonic.com/file/425901....avi.part3.rar
Or
http://www.filejungle.com/f/J3dYS6/P....avi.part1.rar
http://www.filejungle.com/f/wMUHZw/P....avi.part2.rar
http://www.filejungle.com/f/e4eNub/P....avi.part3.rar
Or
http://www.fileserve.com/file/ZmCTWe....avi.part1.rar
http://www.fileserve.com/file/sAjUVz....avi.part2.rar
http://www.fileserve.com/file/bZxU5K....avi.part3.rar
Please-Say-Thanks-To-Keep-The-Topic-Alive.