Mission Impossible 4 Ghost Protocol 2011 CAM XviD - GENER8XiON

iNFo:
http://www.imdb.com/title/tt1229238/
Video : thanks russian CAM
Audio : Thanks NightMareZ .

General

Format : AVI
Format/Info : Audio Video Interleave
File size : 700 MiB
Duration : 1h 55mn
Overall bit rate mode : Variable
Overall bit rate : 845 Kbps
Writing application : MEncoder SVN-r33823-4.1.2
Writing library : MPlayer

Video
ID : 0
Format : MPEG-4 Visual
Format profile : Advanced [email protected]
Format settings, BVOP : 1
Format settings, QPel : No
Format settings, GMC : No warppoints
Format settings, Matrix : Default (H.263)
Codec ID : XVID
Codec ID/Hint : XviD
Duration : 1h 55mn
Bit rate : 705 Kbps
Width : 720 pixels
Height : 304 pixels
Display aspect ratio : 2.35:1
Frame rate : 25.000 fps
Color space : YUV
Chroma subsampling : 4:2:0
Bit depth : 8 bits
Scan type : Progressive
Compression mode : Lossy
Bits/(Pixel*Frame) : 0.129
Stream size : 584 MiB (83%)
Writing library : XviD 1.2.1 (UTC 2008-12-04)

Audio
ID : 1
Format : MPEG Audio
Format version : Version 1
Format profile : Layer 3
Mode : Joint stereo
Mode extension : MS Stereo
Codec ID : 55
Codec ID/Hint : MP3
Duration : 1h 55mn
Bit rate mode : Variable
Bit rate : 128 Kbps
Channel(s) : 2 channels
Sampling rate : 44.1 KHz
Compression mode : Lossy
Stream size : 106 MiB (15%)
Alignment : Aligned on interleaves
Interleave, duration : 26 ms (0.65 video frame)
Interleave, preload duration : 261 ms
Writing library : LAME3.98.4

Notes : Okay , i sent the old files to a friend who just emailed me back and said he synced it any everything is cool
so if its good thanks bizzaro , if not i will kill you badly (all credits goes to bizzaro)
Man , i'm on fire today .
btw sample : http://www.megavideo.com/?v=TSGLEXW3


1-LINK:
http://www.filejungle.com/f/PTzyFQ/M...GENER8XiON.rar
Or
http://www.filesonic.com/file/425871...GENER8XiON.rar
Or
http://www.fileserve.com/file/Twx973...GENER8XiON.rar
Please-Say-Thanks-To-Keep-The-Topic-Alive.