Rise Of The Damned 2011 HDTV XviD-NoGRP

iNFo:
http://www.imdb.com/title/tt1858775/
General
Complete name : Rise.Of.The.Damned.2011.DVDRip.XviD-NoGRP.avi
Format : AVI
Format/Info : Audio Video Interleave
File size : 940 MiB
Duration : 1h 22mn
Overall bit rate : 1 597 Kbps

Video
ID : 0
Format : MPEG-4 Visual
Format profile : Advanced [email protected]
Format settings, BVOP : No
Format settings, QPel : No
Format settings, GMC : No warppoints
Format settings, Matrix : Default (MPEG)
Codec ID : XVID
Codec ID/Hint : XviD
Duration : 1h 22mn
Bit rate : 1 462 Kbps
Width : 720 pixels
Height : 480 pixels
Display aspect ratio : 3:2
Frame rate : 25.000 fps
Standard : NTSC
Color space : YUV
Chroma subsampling : 4:2:0
Bit depth : 8 bits
Scan type : Progressive
Compression mode : Lossy
Bits/(Pixel*Frame) : 0.169
Stream size : 860 MiB (92%)
Writing library : XviD 1.1.2 (UTC 2006-11-01)

Audio
ID : 1
Format : MPEG Audio
Format version : Version 1
Format profile : Layer 3
Codec ID : 55
Codec ID/Hint : MP3
Duration : 1h 22mn
Bit rate mode : Constant
Bit rate : 128 Kbps
Channel(s) : 2 channels
Sampling rate : 44.1 KHz
Compression mode : Lossy
Stream size : 75.3 MiB (8%)
Alignment : Split accross interleaves
Interleave, duration : 80 ms (2.00 video frames)



1-LINK:
http://www.filesonic.com/file/423294...-NoGRP.avi.rar
Or
http://www.filejungle.com/f/pXqNQp/R...-NoGRP.avi.rar
Or
http://www.fileserve.com/file/QrJWAD...-NoGRP.avi.rar
Please-Say-Thanks-To-Keep-The-Topic-Alive.