Skeleton Lake 2012 DVDRip XviD AC3-PRESTiGE(1 Link)

TiTLE............: Skeleton.Lake.2012.DVDRip.XviD.AC3-PRESTiGE

iMDB.............: http://www.imdb.com/title/tt1754506/

GENRE............: Action | Horror | Thriller

LANGUAGE.........: English

FORMAT...........: AVi

SOURCE...........: DVDR-TDP MANY THANKS!!!

FiLE SiZE........: 1.40 GB


SUBS.............: N/A

DURATiON.........: 1h 25mn

ENCODED by.......: akosipalos



ID : 0
Format : MPEG-4 Visual
Format profile : Advanced [email protected]
Format settings, BVOP : 2
Format settings, QPel : No
Format settings, GMC : No warppoints
Format settings, Matrix : Default (H.263)
Codec ID : XVID
Codec ID/Hint : XviD
Duration : 1h 25mn
Bit rate : 1 888 Kbps
Width : 720 pixels
Height : 336 pixels
Display aspect ratio : 2.2:1
Frame rate : 23.976 fps
Color space : YUV
Chroma subsampling : 4:2:0
Bit depth : 8 bits
Scan type : Progressive
Compression mode : Lossy
Bits/(Pixel*Frame) : 0.326
Stream size : 1.13 GiB (81%)
Writing library : XviD 1.2.1 (UTC 2008-12-04)

ID : 1
Format : AC-3
Format/Info : Audio Coding 3
Mode extension : CM (complete main)
Codec ID : 2000
Duration : 1h 25mn
Bit rate mode : Constant
Bit rate : 448 Kbps
Channel(s) : 6 channels
Channel positions : Front: L C R, Side: L R, LFE
Sampling rate : 48.0 KHz
Bit depth : 16 bits
Compression mode : Lossy
Stream size : 274 MiB (19%)
Alignment : Aligned on interleaves
Interleave, duration : 64 ms (1.53 video frames)
Interleave, preload duration : 192 ms
Title : VTS_01_1 T80 3_2ch 448Kbps DELAY 0ms_new

Screenshot:












= DOWNLOAD LINK FILESONIC: =

Our advice:
You should buy a premium account Filesonic for fastest download speed and unlimited. most economical and perfect for just ( $ 9 / month ) :
you can buy a premium account via the link below:



Click:http://www.filesonic.com/premium-ref/25751495


http://www.filesonic.com/file/422733...vdrip.xvid.avi

= DOWNLOAD LINK FILESERVE: =

http://www.fileserve.com/file/qKpnCC...vdrip.xvid.avi

= DOWNLOAD LINK FILEJUNGLE: =

http://www.filejungle.com/f/MrvSKX/p...vdrip.xvid.avi

= DOWNLOAD LINK UPLOADSTATION: =

http://www.uploadstation.com/file/Sp...vdrip.xvid.avi