Fist 2 Fist 2011 DvDRip XviD Ac3 Feel-Free

iNFo:
Genre:Action
Language:English
IMDb:http://www.imdb.com/title/tt1455619/
SourceVD Thanks!

Format : AVI
Format/Info : Audio Video Interleave
File size : 1.10 GiB
Duration : 1h 32mn
Overall bit rate : 1 693 Kbps


Video
ID : 0
Format : MPEG-4 Visual
Format profile : Advanced [email protected]
Format settings, BVOP : Yes
Format settings, QPel : No
Format settings, GMC : No warppoints
Format settings, Matrix : Default (H.263)
Codec ID : XVID
Codec ID/Hint : XviD
Duration : 1h 32mn
Bit rate : 1 236 Kbps
Width : 640 pixels
Height : 360 pixels
Display aspect ratio : 16:9
Frame rate : 23.976 fps
Color space : YUV
Chroma subsampling : 4:2:0
Bit depth : 8 bits
Scan type : Progressive
Bits/(Pixel*Frame) : 0.224
Stream size : 819 MiB (73%)
Writing library : XviD 1.2.1 (UTC 2008-12-04)

Audio
ID : 1
Format : AC-3
Format/Info : Audio Coding 3
Mode extension : CM (complete main)
Codec ID : 2000
Duration : 1h 32mn
Bit rate mode : Constant
Bit rate : 448 Kbps
Channel(s) : 6 channels
Channel positions : Front: L C R, Side: L R, LFE
Sampling rate : 48.0 KHz
Bit depth : 16 bits
Stream size : 297 MiB (26%)
Alignment : Aligned on interleaves
Interleave, duration : 42 ms (1.00 video frame)
Interleave, preload duration : 512 ms



Plot:
Years ago, Ken Min failed to stop his friend from killing a young couple, leaving their infant son orphaned..



1-LINK:
http://www.filesonic.com/file/422883....Feel-Free.rar
Or
http://www.filejungle.com/f/Rz3BTk/F....Feel-Free.rar
Or
http://www.fileserve.com/file/8MjDgH....Feel-Free.rar

450mb-iNTERCHANGEABLE:
http://www.filesonic.com/file/422883....avi.part1.rar
http://www.filesonic.com/file/422883....avi.part2.rar
http://www.filesonic.com/file/422883....avi.part3.rar
Or
http://www.filejungle.com/f/dF7p6W/F....avi.part1.rar
http://www.filejungle.com/f/gNJHt8/F....avi.part2.rar
http://www.filejungle.com/f/wAykpv/F....avi.part3.rar
Or
http://www.fileserve.com/file/dCnFzM....avi.part1.rar
http://www.fileserve.com/file/WFuFvu....avi.part2.rar
http://www.fileserve.com/file/zCrj6m....avi.part3.rar
Please-Say-Thanks-To-Keep-The-Topic-Alive.