Here.Comedy.Presents.Kate.Clinton.2005.DVDRip.XviD-FiCO



iMDB :
http://www.imdb.com/title/tt0458389/

Synopsis:
Legendary comedienne Kate Clinton offers her riotous viewpoint on feminism, lesbianism, and life in this one-woman, stand-up performance.Clinton takes on the burning issues of the day – popes, politics, marriage,sex, pop culture. You’ll laugh ’til you think!
- My Upload.
- Working 100%.
- No Password.
- Interchangeable Links.
- 10% Recovery Added.
- Language : English.


Fileserve :
http://www.fileserve.com/file/26sYU8...on-cd1.avi.rar
http://www.fileserve.com/file/PXaGtn...on-cd2.avi.rar

Filesonic :
http://www.filesonic.com/file/421352...on-cd1.avi.rar
http://www.filesonic.com/file/421353...on-cd2.avi.rar

Filejungle :
http://www.filejungle.com/f/PVTGyG/f...on-cd1.avi.rar
http://www.filejungle.com/f/w8XcKS/f...on-cd2.avi.rar

Uploaded :
http://ul.to/hr6cubx3/fico-kateclinton-cd1.avi.rar
http://ul.to/epo81vxx/fico-kateclinton-cd2.avi.rar

PLEASE REPLY IF YOU LIKE MY POST!

SCREENSHOT :



NFO :
Here.Comedy.Presents.Kate.Clinton.2005.DVDRip.XviD-FiCO

http://www.imdb.com/title/tt0458389/
Subtitles: None
Date: 2011.12

Director: Kerry Asmussen, Eric T. Feldman
Genre: Standup Comedy
Plot: Legendary comedienne Kate Clinton offers her riotous viewpoint on
feminism, lesbianism, and life in this one-woman, stand-up performance.
Clinton takes on the burning issues of the day - popes, politics, marriage,
sex, pop culture. You'll laugh 'til you think!

Stats:
General
Format : AVI
Format/Info : Audio Video Interleave
File size : 1.36 GiB
Duration : 1h 25mn
Overall bit rate : 2 291 Kbps
Writing application : VirtualDubMod 1.5.10.2 (build 2542/release)
Writing library : VirtualDubMod build 2542/release

Video
ID : 0
Format : MPEG-4 Visual
Format profile : Advanced [email protected]
Format settings, BVOP : Yes
Format settings, QPel : No
Format settings, GMC : No warppoints
Format settings, Matrix : Default (H.263)
Codec ID : XVID
Codec ID/Hint : XviD
Duration : 1h 25mn
Bit rate : 2 087 Kbps
Width : 640 pixels
Height : 464 pixels
Display aspect ratio : 1.379
Frame rate : 29.970 fps
Resolution : 8 bits
Colorimetry : 4:2:0
Scan type : Progressive
Bits/(Pixel*Frame) : 0.234
Stream size : 1.24 GiB (91%)
Writing library : XviD 61

Audio
ID : 1
Format : AC-3
Format/Info : Audio Coding 3
Format_Settings_ModeExtension : CM (complete main)
Codec ID : 2000
Duration : 1h 25mn
Bit rate mode : Constant
Bit rate : 192 Kbps
Channel(s) : 2 channels
Channel positions : Front: L R
Sampling rate : 48.0 KHz
Stream size : 117 MiB (8%)
Alignment : Split accross interleaves
Interleave, duration : 33 ms (1.00 video frame)
Interleave, preload duration : 500 ms

Release notes:
enjoy!