Mortal Kombat Legacy 2011 BRRip XViD-DTRG



iMDB :
http://www.imdb.com/title/tt1842127/

Synopsis:
Mortal Kombat: Legacy brings to life the complex and rich history of the gaming world of MORTAL KOMBAT. Shao Kahn and Shang Tsung are obsessed with reigning over various realms (parallel universes) and the winners of Mortal Kombat competitions are granted supreme control over these worlds. The Earthrealm (Earth) is an unconscious participant in this competition and only a few select humans understand the consequences of losing Mortal Kombat and what it will mean to Earth. In a universe with powerful evil sorcerers, cyborgs, Gods and movie stars, this Mortal Kombat digital media series drives a cohesive understanding of what this Universe is all about.
- My Upload.
- Working 100%.
- No Password.
- Interchangeable Links.
- 10% Recovery Added.
- Language : English.


Fileserve :
http://www.fileserve.com/file/gCFKax..._XViD_DTRG.rar

Filesonic :
http://www.filesonic.com/file/421351..._XViD_DTRG.rar

Filejungle :
http://www.filejungle.com/f/NjXEJw/M..._XViD_DTRG.rar

Uploaded :
http://ul.to/p99hwglf/Mortal_Kombat_..._XViD_DTRG.rar

PLEASE REPLY IF YOU LIKE MY POST!

SCREENSHOT :


FULL SCREENSHOT :
http://i.lulzimg.com/6752dc5fc3.jpg
http://i.lulzimg.com/70c0722460.jpg
http://i.lulzimg.com/3db9f339d9.jpg
http://i.lulzimg.com/43ca401075.jpg
http://i.lulzimg.com/ffaf12acea.jpg
http://i.lulzimg.com/5de8c34151.jpg
http://i.lulzimg.com/b7059e2676.jpg
http://i.lulzimg.com/02fd05abcd.jpg
http://i.lulzimg.com/21f480be32.jpg

NFO :
Video
ID : 0
Format : MPEG-4 Visual
Format profile : Advanced [email protected]
Format settings, BVOP : 1
Format settings, QPel : No
Format settings, GMC : No warppoints
Format settings, Matrix : Default (H.263)
Muxing mode : Packed bitstream
Codec ID : XVID
Codec ID/Hint : XviD
Duration : 1h 31mn
Bit rate : 1 078 Kbps
Width : 720 pixels
Height : 304 pixels
Display aspect ratio : 2.35:1
Frame rate : 23.976 fps
Color space : YUV
Chroma subsampling : 4:2:0
Bit depth : 8 bits
Scan type : Progressive
Compression mode : Lossy
Bits/(Pixel*Frame) : 0.205
Stream size : 709 MiB (70%)
Writing library : XviD 64

Audio
ID : 1
Format : AC-3
Format/Info : Audio Coding 3
Mode extension : CM (complete main)
Codec ID : 2000
Duration : 1h 31mn
Bit rate mode : Constant
Bit rate : 448 Kbps
Channel(s) : 6 channels
Channel positions : Front: L C R, Side: L R, LFE
Sampling rate : 48.0 KHz
Bit depth : 16 bits
Compression mode : Lossy
Stream size : 295 MiB (29%)
Alignment : Split accross interleaves
Interleave, duration : 500 ms (11.98 video frames)
Interleave, preload duration : 500 ms