Mortal Kombat Legacy 2011 BRRip XViD-DTRG

iNFo:
http://www.imdb.com/title/tt1842127/
Video
ID : 0
Format : MPEG-4 Visual
Format profile : Advanced [email protected]
Format settings, BVOP : 1
Format settings, QPel : No
Format settings, GMC : No warppoints
Format settings, Matrix : Default (H.263)
Muxing mode : Packed bitstream
Codec ID : XVID
Codec ID/Hint : XviD
Duration : 1h 31mn
Bit rate : 1 078 Kbps
Width : 720 pixels
Height : 304 pixels
Display aspect ratio : 2.35:1
Frame rate : 23.976 fps
Color space : YUV
Chroma subsampling : 4:2:0
Bit depth : 8 bits
Scan type : Progressive
Compression mode : Lossy
Bits/(Pixel*Frame) : 0.205
Stream size : 709 MiB (70%)
Writing library : XviD 64

Audio
ID : 1
Format : AC-3
Format/Info : Audio Coding 3
Mode extension : CM (complete main)
Codec ID : 2000
Duration : 1h 31mn
Bit rate mode : Constant
Bit rate : 448 Kbps
Channel(s) : 6 channels
Channel positions : Front: L C R, Side: L R, LFE
Sampling rate : 48.0 KHz
Bit depth : 16 bits
Compression mode : Lossy
Stream size : 295 MiB (29%)
Alignment : Split accross interleaves
Interleave, duration : 500 ms (11.98 video frames)
Interleave, preload duration : 500 ms





1-LINK:
http://www.filesonic.com/file/421095..._XViD_DTRG.rar
Or
http://www.filejungle.com/f/V2FctN/M..._XViD_DTRG.rar
Or
http://www.fileserve.com/file/RwnGnH..._XViD_DTRG.rar
Please-Say-Thanks-To-Keep-The-Topic-Alive.