Some Guy Who Kills People 2011 DVDRiP XviD AC3-SiC


Some.Guy.Who.Kills.People.2011.DVDRiP.XviD.AC3-SiC

IMDB Link:
http://www.imdb.com/title/tt1568341/

Description:
Some Guy Who Kills People is about Ken Boyd, a lonely man fresh out of the loony bin,
who sets out to kill those he deems responsible for his miserable life.

MediaInfo:
General
Complete name : Some.Guy.Who.Kills.People.2011.DVDRiP.XviD.AC3-SiC.avi
Format : AVI
Format/Info : Audio Video Interleave
File size : 1.46 GiB
Duration : 1h 37mn
Overall bit rate : 2 138 Kbps

Video
ID : 0
Format : MPEG-4 Visual
Format profile : Advanced [email protected]
Format settings, BVOP : 1
Format settings, QPel : No
Format settings, GMC : No warppoints
Format settings, Matrix : Default (H.263)
Codec ID : XVID
Codec ID/Hint : XviD
Duration : 1h 37mn
Bit rate : 1 682 Kbps
Width : 720 pixels
Height : 400 pixels
Display aspect ratio : 16:9
Frame rate : 23.976 fps
Color space : YUV
Chroma subsampling : 4:2:0
Bit depth : 8 bits
Scan type : Progressive
Compression mode : Lossy
Bits/(Pixel*Frame) : 0.244
Stream size : 1.15 GiB (79%)
Writing library : XviD 1.2.1 (UTC 2008-12-04)

Audio
ID : 1
Format : AC-3
Format/Info : Audio Coding 3
Mode extension : CM (complete main)
Codec ID : 2000
Duration : 1h 37mn
Bit rate mode : Constant
Bit rate : 448 Kbps
Channel(s) : 6 channels
Channel positions : Front: L C R, Side: L R, LFE
Sampling rate : 48.0 KHz
Bit depth : 16 bits
Compression mode : Lossy
Stream size : 313 MiB (21%)
Alignment : Aligned on interleaves
Interleave, duration : 64 ms (1.53 video frames)
Interleave, preload duration : 192 ms
Title : VTS_01_1 T80 3_2ch 448Kbps DELAY 0ms

Screenshot:













= DOWNLOAD LINK FILESONIC: =

Our advice:
You should buy a premium account Filesonic for fastest download speed and unlimited. most economical and perfect for just ( $ 9 / month ) :
you can buy a premium account via the link below:



Click:http://www.filesonic.com/premium-ref/25751495

http://www.filesonic.com/file/419322...iD.AC3-SiC.avi

= DOWNLOAD LINK FILESERVE: =

http://www.fileserve.com/file/csJfBy...iD.AC3-SiC.avi

= DOWNLOAD LINK FILEJUNGLE: =

http://www.filejungle.com/f/sECpMq/S...iD.AC3-SiC.avi

= DOWNLOAD LINK UPLOADSTATION: =

http://www.uploadstation.com/file/f7...iD.AC3-SiC.avi