Hugo 2011 CaM 720p XviD - ILLUMINATI

iNFo:
Hugo 2011 CaM 720p XviD - ILLUMINATI

iMDB
http://www.imdb.com/title/tt0970179/

plot
Set in 1930s Paris, an orphan who lives
in the walls of a train station is wrapped
up in a mystery involving his late father
and an automaton.

source
Thanks

Video

info
ID : 0
Format : MPEG-4 Visual
Format profile : Advanced [email protected]
Format settings, BVOP : 2
Format settings, QPel : No
Format settings, GMC : No warppoints
Format settings, Matrix : Default (H.263)
Codec ID : XVID
Codec ID/Hint : XviD
Duration : 2h 0mn
Bit rate : 2 747 Kbps
Width : 1 280 pixels
Height : 608 pixels
Display aspect ratio : 2.2:1
Frame rate : 24.000 fps
Color space : YUV
Chroma subsampling : 4:2:0
Bit depth : 8 bits
Scan type : Progressive
Compression mode : Lossy
Bits/(Pixel*Frame) : 0.147
Stream size : 2.32 GiB (95%)

Audio
ID : 1
Format : MPEG Audio
Format version : Version 1
Format profile : Layer 3
Codec ID : 55
Codec ID/Hint : MP3
Duration : 2h 0mn
Bit rate mode : Constant
Bit rate : 128 Kbps
Channel(s) : 2 channels
Sampling rate : 44.1 KHz
Compression mode : Lossy
Stream size : 111 MiB (4%)
Alignment : Aligned on interleaves
Interleave, duration : 42 ms (1.00 video frame)
Writing library : LAME3.98.4


1-LINK:
http://www.filesonic.com/file/419591...ILLUMINATI.rar

950mb-iNTERCHANGEABLE:
http://www.filesonic.com/file/419591....avi.part1.rar
http://www.filesonic.com/file/419591....avi.part2.rar
http://www.filesonic.com/file/419590....avi.part3.rar
Or
http://www.filejungle.com/f/5RV3Ek/H....avi.part1.rar
http://www.filejungle.com/f/4yv6kj/H....avi.part2.rar
http://www.filejungle.com/f/JYVZMq/H....avi.part3.rar
Or
http://www.fileserve.com/file/hts56k....avi.part1.rar
http://www.fileserve.com/file/aDwZyS....avi.part2.rar
http://www.fileserve.com/file/RG3vfj....avi.part3.rar
Please-Say-Thanks-To-Keep-The-Topic-Alive.