The Green Hornet DvdRip AC3 DiVERSiTY

Following the death of his father, Britt Reid, heir to his
father's large company, teams up with his late dad's assistant
Kato to become a masked crime fighting team.
Complete name : The Green Hornet (2011) DvdRip AC3 DiVERSiTY
Format : AVI
Format/Info : Audio Video Interleave
Format profile : OpenDML
File size : 1.41 GiB
Duration : 1h 58mn
Overall bit rate : 1 693 Kbps
Writing application : AVI-Mux GUI 1.17.8.3, Feb 16 201019:42:50
Source : DVDR-BOW
Encoder : Manix

Video

Format : MPEG-4 Visual
Format profile : Advanced [email protected]
Format settings, BVOP : 2
Format settings, QPel : No
Format settings, GMC : No warppoints
Format settings, Matrix : Default (H.263)
Codec ID : XVID
Codec ID/Hint : XviD
Duration : 1h 58mn
Bit rate : 1 237 Kbps
Width : 720 pixels
Height : 288 pixels
Display aspect ratio : 2.500
Frame rate : 29.970 fps
Resolution : 8 bits
Colorimetry : 4:2:0
Scan type : Progressive
Bits/(Pixel*Frame) : 0.199
Stream size : 1.03 GiB (73%)
Writing library : XviD 1.2.1 (UTC 2008-12-04)



Audio

Format : AC-3
Format/Info : Audio Coding 3
Codec ID : 2000
Duration : 1h 58mn
Bit rate mode : Constant
Bit rate : 448 Kbps
Channel(s) : 6 channels
Channel positions : Front: L C R, Side: L R, LFE
Sampling rate : 48.0 KHz
Stream size : 381 MiB (26%)
Alignment : Aligned on interleaves
Interleave, duration : 64 ms (1.92 video frames)
Interleave, preload duration : 192 ms
Title : VTS_01_1 T80 3_0ch 384Kbps DELAY 0ms










= DOWNLOAD LINK FILESONIC: =

Our advice:
You should buy a premium account Filesonic for fastest download speed and unlimited. most economical and perfect for just ( $ 9 / month ) :
you can buy a premium account via the link below:



Click:http://www.filesonic.com/premium-ref/25751495

http://www.filesonic.com/file/410988...vID_.part1.rar
http://www.filesonic.com/file/410985...vID_.part2.rar
http://www.filesonic.com/file/410990...vID_.part3.rar
http://www.filesonic.com/file/410985...vID_.part4.rar

= DOWNLOAD LINK FILESERVE: =

http://www.fileserve.com/file/RgakBX...vID_.part1.rar
http://www.fileserve.com/file/5W5Zxg...vID_.part2.rar
http://www.fileserve.com/file/HY7zyP...vID_.part3.rar
http://www.fileserve.com/file/Y5kFX8...vID_.part4.rar

= DOWNLOAD LINK FILEJUNGLE: =

http://www.filejungle.com/f/C2w2Kp/T...vID_.part1.rar
http://www.filejungle.com/f/ncRZ5W/T...vID_.part2.rar
http://www.filejungle.com/f/tUuEaw/T...vID_.part3.rar
http://www.filejungle.com/f/kAHnx2/T...vID_.part4.rar

= DOWNLOAD LINK UPLOADSTATION: =

http://www.uploadstation.com/file/ja...vID_.part1.rar
http://www.uploadstation.com/file/kG...vID_.part2.rar
http://www.uploadstation.com/file/Sf...vID_.part3.rar
http://www.uploadstation.com/file/xy...vID_.part4.rar