Hugo 2011 CAM XViD-DTRG

iNFo:
http://www.imdb.com/title/tt0970179/
Format : AVI
Format/Info : Audio Video Interleave
File size : 1.31 GiB
Duration : 2h 0mn
Overall bit rate : 1 555 Kbps
Writing application : VirtualDubMod 1.5.10.2 (build 2540/release)
Writing library : VirtualDubMod build 2540/release

Video
ID : 0
Format : MPEG-4 Visual
Format profile : Advanced [email protected]
Format settings, BVOP : 1
Format settings, QPel : No
Format settings, GMC : No warppoints
Format settings, Matrix : Default (H.263)
Muxing mode : Packed bitstream
Codec ID : XVID
Codec ID/Hint : XviD
Duration : 2h 0mn
Bit rate : 1 321 Kbps
Width : 720 pixels
Height : 320 pixels
Display aspect ratio : 2.25:1
Frame rate : 24.000 fps
Color space : YUV
Chroma subsampling : 4:2:0
Bit depth : 8 bits
Scan type : Progressive
Compression mode : Lossy
Bits/(Pixel*Frame) : 0.239
Stream size : 1.12 GiB (85%)
Writing library : XviD 64

Audio
ID : 1
Format : AC-3
Format/Info : Audio Coding 3
Mode extension : CM (complete main)
Codec ID : 2000
Duration : 2h 0mn
Bit rate mode : Constant
Bit rate : 224 Kbps
Channel(s) : 2 channels
Channel positions : Front: L R
Sampling rate : 44.1 KHz
Bit depth : 16 bits
Compression mode : Lossy
Delay relative to video : 35ms
Stream size : 194 MiB (14%)
Alignment : Split accross interleaves
Interleave, duration : 42 ms (1.00 video frame)
Interleave, preload duration : 500 ms



1-LINK:
http://www.filesonic.com/file/418225....XViD-DTRG.rar
Or
http://www.filejungle.com/f/bFnvzD/H....XViD-DTRG.rar
Or
http://www.fileserve.com/file/dFHUnq....XViD-DTRG.rar

450mb-iNTERCHANGEABLE:
http://www.filesonic.com/file/418223....avi.part1.rar
http://www.filesonic.com/file/418223....avi.part2.rar
http://www.filesonic.com/file/418223....avi.part3.rar
Or
http://www.filejungle.com/f/ds936C/H....avi.part1.rar
http://www.filejungle.com/f/Dkquuy/H....avi.part2.rar
http://www.filejungle.com/f/PAFtD8/H....avi.part3.rar
Or
http://www.fileserve.com/file/Ett9sZ....avi.part1.rar
http://www.fileserve.com/file/NTfgZ3....avi.part2.rar
http://www.fileserve.com/file/HadkZf....avi.part3.rar
Please-Say-Thanks-To-Keep-The-Topic-Alive.