Wasted on the Young 2010 BRRIP X264 AC3-CrEwSaDe

iNFo:
***********************************************************************************************

**Wasted.on.the.Young.2010.BRRIP.X264.AC3.CrEwsADe**

***********************************************************************************************

Encoder ..........: Crazycook
Video Codec.......: AVC
Video Bitrate.....: 813 kbs
Audio Codec.......: AC3
Audio Bitrate.....: 192 kbs, 6 channels
Resolution........: 720X304, 23.976
Runtime...........: 1h 36mn
Release Date......: 10 Sept. 2011
Theatre Date......: 3 March 2011
Language..........: English
Subtitles.........: n/a
IMDB Rating.......: 6 / 10
IMDb URL..........: http://www.imdb.com/title/tt1647483/

General
Unique ID : 233546430363030951467376670065705846803 (0xAFB368077A20F6C699DD71C78DB78813)
Complete name : D:\torrent data\Wasted.on.the.Young.2010.BRRIP.X264.AAC.CrEwSaDe\Wasted.on.the.Young.2010.BRRIP.X264.AAC.CrEwSaDe.mkv
Format : Matroska
Format version : Version 2
File size : 698 MiB
Duration : 1h 36mn
Overall bit rate : 1 007 Kbps
Encoded date : UTC 2011-12-10 18:59:51
Writing application : mkvmerge v5.1.0 ('And so it goes') built on Nov 28 2011 23:58:28
Writing library : libebml v1.2.3 + libmatroska v1.3.0

Video
ID : 1
Format : AVC
Format/Info : Advanced Video Codec
Format profile : [email protected]
Format settings, CABAC : Yes
Format settings, ReFrames : 5 frames
Codec ID : V_MPEG4/ISO/AVC
Duration : 1h 36mn
Bit rate : 813 Kbps
Width : 720 pixels
Height : 304 pixels
Display aspect ratio : 2.35:1
Frame rate : 24.000 fps
Color space : YUV
Chroma subsampling : 4:2:0
Bit depth : 8 bits
Scan type : Progressive
Bits/(Pixel*Frame) : 0.155
Stream size : 551 MiB (79%)
Writing library : x264 core 120 r2120 0c7dab9
Encoding settings : cabac=1 / ref=5 / deblock=1:-1:-1 / analyse=0x3:0x133 / me=umh / subme=6 / psy=1 / psy_rd=1.00:0.00 / mixed_ref=1 / me_range=16 / chroma_me=1 / trellis=2 / 8x8dct=1 / cqm=0 / deadzone=21,11 / fast_pskip=1 / chroma_qp_offset=-2 / threads=12 / sliced_threads=0 / nr=0 / decimate=1 / interlaced=0 / bluray_compat=0 / constrained_intra=0 / bframes=3 / b_pyramid=2 / b_adapt=2 / b_bias=0 / direct=3 / weightb=1 / open_gop=0 / weightp=2 / keyint=250 / keyint_min=24 / scenecut=40 / intra_refresh=0 / rc_lookahead=40 / rc=2pass / mbtree=1 / bitrate=813 / ratetol=1.0 / qcomp=0.60 / qpmin=10 / qpmax=51 / qpstep=4 / cplxblur=20.0 / qblur=0.5 / ip_ratio=1.40 / aq=1:1.00

Audio
ID : 2
Format : AC-3
Format/Info : Audio Coding 3
Mode extension : CM (complete main)
Codec ID : A_AC3
Duration : 1h 36mn
Bit rate mode : Constant
Bit rate : 192 Kbps
Channel(s) : 6 channels
Channel positions : Front: L C R, Side: L R, LFE
Sampling rate : 48.0 KHz
Bit depth : 16 bits
Compression mode : Lossy
Stream size : 133 MiB (19%)

SOURCES:

VIDEO: Wasted on the Young 2010 BluRay x264 DTS-DNL Thanks
AUDIO: Wasted on the Young 2010 BluRay x264 DTS-DNL Thanks

Plot: When a high school party goes dangerously off the rails, one teenager finds that revenge is just a computer click away.

Screens:


1-LINK:
http://www.filesonic.com/file/416879...EwSaDe.mkv.rar
Or
http://www.filejungle.com/f/ySt3Nq/W...EwSaDe.mkv.rar
Or
http://www.fileserve.com/file/RE58R8...EwSaDe.mkv.rar
Please-Say-Thanks-To-Keep-The-Topic-Alive.