Final Destination 5 2011 720p BRRip x264 - Feel-Free

iNFo:
http://www.imdb.com/title/tt1622979/
General
Complete name : Final.Destination.5.720p.BRRip.x264.Feel-Free.mp4
Format : MPEG-4
Format profile : Base Media
Codec ID : isom
File size : 2.20 GiB
Duration : 1h 31mn
Overall bit rate mode : Variable
Overall bit rate : 3 428 Kbps
Encoded date : UTC 2011-12-08 07:56:33
Tagged date : UTC 2011-12-08 07:56:33

Video
ID : 1
Format : AVC
Format/Info : Advanced Video Codec
Format profile : [email protected]
Format settings, CABAC : Yes
Format settings, ReFrames : 3 frames
Codec ID : avc1
Codec ID/Info : Advanced Video Coding
Duration : 1h 31mn
Bit rate : 3 000 Kbps
Maximum bit rate : 18.6 Mbps
Width : 1 280 pixels
Height : 528 pixels
Display aspect ratio : 2.40:1
Frame rate mode : Constant
Frame rate : 23.976 fps
Color space : YUV
Chroma subsampling : 4:2:0
Bit depth : 8 bits
Scan type : Progressive
Bits/(Pixel*Frame) : 0.185
Stream size : 1.92 GiB (87%)
Writing library : x264 core 75 r1251kMod e553a4c
Encoding settings : cabac=1 / ref=3 / deblock=1:0:0 / analyse=0x3:0x113 / me=umh / subme=7 / psy=1 / psy_rd=1.0:0.0 / mixed_ref=1 / me_range=12 / chroma_me=1 / trellis=2 / 8x8dct=1 / cqm=0 / deadzone=21,11 / chroma_qp_offset=-2 / threads=3 / nr=0 / decimate=1 / mbaff=0 / bframes=3 / b_pyramid=0 / b_adapt=2 / b_bias=0 / direct=1 / wpredb=1 / keyint=250 / keyint_min=25 / scenecut=40 / rc_lookahead=60 / rc=cbr / mbtree=1 / bitrate=3000 / ratetol=1.0 / qcomp=0.50 / qpmin=10 / qpmax=51 / qpstep=4 / vbv_maxrate=24000 / vbv_bufsize=24000 / ip_ratio=1.40 / aq=1:1.00
Encoded date : UTC 2011-12-08 07:56:33
Tagged date : UTC 2011-12-08 08:05:21

Audio
ID : 2
Format : AAC
Format/Info : Advanced Audio Codec
Format profile : LC
Codec ID : 40
Duration : 1h 31mn
Bit rate mode : Variable
Bit rate : 431 Kbps
Maximum bit rate : 525 Kbps
Channel(s) : 6 channels
Channel positions : Front: L C R, Side: L R, LFE
Sampling rate : 48.0 KHz
Compression mode : Lossy
Stream size : 283 MiB (13%)
Encoded date : UTC 2011-12-08 08:04:13
Tagged date : UTC 2011-12-08 08:05:21


1-LINK:
http://www.filesonic.com/file/415693....Feel-Free.rar
Or
http://www.filejungle.com/f/Z9ZUMb/F....Feel-Free.rar

950mb-iNTERCHANGEABLE:
http://www.filesonic.com/file/415683....mp4.part1.rar
http://www.filesonic.com/file/415683....mp4.part2.rar
http://www.filesonic.com/file/415679....mp4.part3.rar
Or
http://www.filejungle.com/f/UsEtks/F....mp4.part1.rar
http://www.filejungle.com/f/jMWnyz/F....mp4.part2.rar
http://www.filejungle.com/f/HNM7sK/F....mp4.part3.rar
Or
http://www.fileserve.com/file/nFK4dq....mp4.part1.rar
http://www.fileserve.com/file/jywPK8....mp4.part2.rar
http://www.fileserve.com/file/fZ5bah....mp4.part3.rar
Please-Say-Thanks-To-Keep-The-Topic-Alive.