Warrior 2011 720p BRRip x264 - Feel-Free

iNFo:
Genre: Action | Drama | Sport
Language:English
IMDb:http://www.imdb.com/title/tt1291584/
Source:BluRay.x264-Felony Thanks!


Format : MPEG-4
Format profile : Base Media
Codec ID : isom
File size : 3.28 GiB
Duration : 2h 20mn
Overall bit rate : 3 343 Kbps

Video
ID : 1
Format : AVC
Format/Info : Advanced Video Codec
Format profile : [email protected]
Format settings, CABAC : Yes
Format settings, ReFrames : 3 frames
Codec ID : avc1
Codec ID/Info : Advanced Video Coding
Duration : 2h 20mn
Bit rate mode : Variable
Bit rate : 3 000 Kbps
Maximum bit rate : 16.2 Mbps
Width : 1 280 pixels
Height : 536 pixels
Display aspect ratio : 2.35:1
Frame rate mode : Constant
Frame rate : 23.976 fps
Color space : YUV
Chroma subsampling : 4:2:0
Bit depth : 8 bits
Scan type : Progressive
Bits/(Pixel*Frame) : 0.182
Stream size : 2.84 GiB (87%)
Writing library : x264

Audio
ID : 2
Format : AAC
Format/Info : Advanced Audio Codec
Format version : Version 4
Format profile : LC
Format settings, SBR : No
Codec ID : 40
Duration : 2h 20mn
Bit rate mode : Variable
Bit rate : 443 Kbps
Maximum bit rate : 534 Kbps
Channel(s) : 6 channels
Channel positions : Front: L C R, Side: L R, LFE
Sampling rate : 48.0 KHz
Stream size : 445 MiB (13%)


1-LINK:
http://www.filesonic.com/file/414495....Feel-Free.rar
Or
http://www.filejungle.com/f/XvgTZk/W....Feel-Free.rar

950mb-iNTERCHANGEABLE:
http://www.filesonic.com/file/414494....mp4.part1.rar
http://www.filesonic.com/file/414495....mp4.part2.rar
http://www.filesonic.com/file/414495....mp4.part3.rar
http://www.filesonic.com/file/414493....mp4.part4.rar
Or
http://www.filejungle.com/f/Sh7e9J/W....mp4.part1.rar
http://www.filejungle.com/f/V2JHDf/W....mp4.part2.rar
http://www.filejungle.com/f/mHwwKb/W....mp4.part3.rar
http://www.filejungle.com/f/NwxH5U/W....mp4.part4.rar
Or
http://www.fileserve.com/file/ZQVW3t....mp4.part1.rar
http://www.fileserve.com/file/azGJg4....mp4.part2.rar
http://www.fileserve.com/file/XFZtgT....mp4.part3.rar
http://www.fileserve.com/file/U3y95W....mp4.part4.rar
Please-Say-Thanks-To-Keep-The-Topic-Alive.