Boy Wonder 2010 DVDRip XVID AC3-BHRG

iNFo:
http://www.imdb.com/title/tt1456060/
General
Complete name : Boy.Wonder.2010.DVDRip.XVID.AC3-BHRG.avi
Format : AVI
Format/Info : Audio Video Interleave
File size : 698 MiB
Duration : 1h 36mn
Overall bit rate : 1 012 Kbps

Video
ID : 0
Format : MPEG-4 Visual
Format profile : Advanced [email protected]
Format settings, BVOP : 2
Format settings, QPel : No
Format settings, GMC : No warppoints
Format settings, Matrix : Default (H.263)
Muxing mode : Packed bitstream
Codec ID : XVID
Codec ID/Hint : XviD
Duration : 1h 36mn
Bit rate : 875 Kbps
Width : 720 pixels
Height : 304 pixels
Display aspect ratio : 2.35:1
Frame rate : 29.970 fps
Color space : YUV
Chroma subsampling : 4:2:0
Bit depth : 8 bits
Scan type : Progressive
Compression mode : Lossy
Bits/(Pixel*Frame) : 0.133
Stream size : 604 MiB (86%)
Writing library : XviD 1.2.1 (UTC 2008-12-04)

Audio
ID : 1
Format : AC-3
Format/Info : Audio Coding 3
Mode extension : CM (complete main)
Codec ID : 2000
Duration : 1h 36mn
Bit rate mode : Constant
Bit rate : 128 Kbps
Channel(s) : 2 channels
Channel positions : Front: L R
Sampling rate : 48.0 KHz
Bit depth : 16 bits
Compression mode : Lossy
Stream size : 88.3 MiB (13%)
Alignment : Aligned on interleaves
Interleave, duration : 64 ms (1.92 video frames)
Interleave, preload duration : 192 ms
Title : Boy.Wonder.2010.DVDRip.x264.AC3-SiC.mp4_track_1_english


1-LINK:
http://www.filesonic.com/file/410267...D_AC3_BHRG.rar
Or
http://www.filejungle.com/f/6ku4YP/B...D_AC3_BHRG.rar
Or
http://www.fileserve.com/file/HpHJjd...D_AC3_BHRG.rar
Please-Say-Thanks-To-Keep-The-Topic-Alive.