Red Dog 2011 BDRip XVID AC3 HQ Hive CM8

iNFo:
http://www.imdb.com/title/tt0803061/
General
Complete name : Red.Dog.2011.BDRip.XVID.AC3.HQ.Hive-CM8.avi
Format : AVI
Format/Info : Audio Video Interleave
File size : 1.35 GiB
Duration : 1h 32mn
Overall bit rate : 2 093 Kbps
Writing application : Nandub v1.0rc2
Writing library : Nandub build 1853/release

Video
ID : 0
Format : MPEG-4 Visual
Format profile : Advanced [email protected]
Format settings, BVOP : 1
Format settings, QPel : Yes
Format settings, GMC : No warppoints
Format settings, Matrix : Default (H.263)
Muxing mode : Packed bitstream
Codec ID : XVID
Codec ID/Hint : XviD
Duration : 1h 32mn
Bit rate : 1 699 Kbps
Width : 720 pixels
Height : 304 pixels
Display aspect ratio : 2.35:1
Frame rate : 23.976 fps
Color space : YUV
Chroma subsampling : 4:2:0
Bit depth : 8 bits
Scan type : Progressive
Compression mode : Lossy
Bits/(Pixel*Frame) : 0.324
Stream size : 1.10 GiB (81%)
Writing library : XviD 1.2.1 (UTC 2008-12-04)

Audio
ID : 1
Format : AC-3
Format/Info : Audio Coding 3
Mode extension : CM (complete main)
Codec ID : 2000
Duration : 1h 32mn
Bit rate mode : Constant
Bit rate : 384 Kbps
Channel(s) : 6 channels
Channel positions : Front: L C R, Side: L R, LFE
Sampling rate : 48.0 KHz
Bit depth : 16 bits
Compression mode : Lossy
Stream size : 254 MiB (18%)
Alignment : Split accross interleaves
Interleave, duration : 42 ms (1.00 video frame)
Interleave, preload duration : 500 ms



1-LINK:
http://www.filesonic.com/file/409450...Q.Hive-CM8.avi
Or
http://www.filejungle.com/f/TwuuAV/R...Q.Hive-CM8.avi
Or
http://www.fileserve.com/file/4jwEQb...Q.Hive-CM8.avi

450mb-iNTERCHANGEABLE:
http://www.filesonic.com/file/409471....avi.part1.rar
http://www.filesonic.com/file/409470....avi.part2.rar
http://www.filesonic.com/file/409470....avi.part3.rar
http://www.filesonic.com/file/409470....avi.part4.rar
Or
http://www.filejungle.com/f/3zvf4E/R....avi.part1.rar
http://www.filejungle.com/f/k2H3zp/R....avi.part2.rar
http://www.filejungle.com/f/WGSzTC/R....avi.part3.rar
http://www.filejungle.com/f/WgG3GB/R....avi.part4.rar
Or
http://www.fileserve.com/file/hjBpNM....avi.part1.rar
http://www.fileserve.com/file/f3rtxR....avi.part2.rar
http://www.fileserve.com/file/Zwagte....avi.part3.rar
http://www.fileserve.com/file/mGpVZP....avi.part4.rar
Please-Say-Thanks-To-Keep-The-Topic-Alive.