TT3D: Closer to the Edge 2011 BRRip XviD AC3-PRESTiGE

iNFo:
Complete name : TT3D.Closer.to.the.Edge.2011.BRRip.XviD.AC3-PRESTiGE
Format : AVI
Format/Info : Audio Video Interleave
File size : 1.81 GiB
Duration : 1h 43mn
Overall bit rate : 2 500 Kbps
Subs : N/A
Source : 720p.BluRay.x264 Many THANKS
Encoder : akosipalos


iMDB: http://www.imdb.com/title/tt1698010/


Video

ID : 0
Format : MPEG-4 Visual
Format profile : Advanced [email protected]
Format settings, BVOP : 2
Format settings, QPel : No
Format settings, GMC : No warppoints
Format settings, Matrix : Default (H.263)
Codec ID : XVID
Codec ID/Hint : XviD
Duration : 1h 43mn
Bit rate : 2 044 Kbps
Width : 720 pixels
Height : 384 pixels
Display aspect ratio : 1.875
Frame rate : 23.976 fps
Color space : YUV
Chroma subsampling : 4:2:0
Bit depth : 8 bits
Scan type : Progressive
Compression mode : Lossy
Bits/(Pixel*Frame) : 0.308
Stream size : 1.48 GiB (82%)
Writing library : XviD 1.2.1 (UTC 2008-12-04)

Audio

ID : 1
Format : AC-3
Format/Info : Audio Coding 3
Mode extension : CM (complete main)
Codec ID : 2000
Duration : 1h 43mn
Bit rate mode : Constant
Bit rate : 448 Kbps
Channel(s) : 6 channels
Channel positions : Front: L C R, Side: L R, LFE
Sampling rate : 48.0 KHz
Bit depth : 16 bits
Compression mode : Lossy
Stream size : 332 MiB (18%)
Alignment : Aligned on interleaves
Interleave, duration : 64 ms (1.53 video frames)
Interleave, preload duration : 192 ms


1-LINK:
http://www.filesonic.com/file/409378...brrip.xvid.rar
Or
http://www.filejungle.com/f/uGZCdr/p...brrip.xvid.rar
Or
http://www.fileserve.com/file/vxDzYk...brrip.xvid.rar

450mb-iNTERCHANGEABLE:
http://www.filesonic.com/file/409385....avi.part1.rar
http://www.filesonic.com/file/409386....avi.part2.rar
http://www.filesonic.com/file/409386....avi.part3.rar
http://www.filesonic.com/file/409386....avi.part4.rar
http://www.filesonic.com/file/409385....avi.part5.rar
Or
http://www.filejungle.com/f/7YDEdp/p....avi.part1.rar
http://www.filejungle.com/f/rgeb8p/p....avi.part2.rar
http://www.filejungle.com/f/uWWM5b/p....avi.part3.rar
http://www.filejungle.com/f/nhQtkw/p....avi.part4.rar
http://www.filejungle.com/f/jwQv43/p....avi.part5.rar
Or
http://www.fileserve.com/file/5PNy9B....avi.part1.rar
http://www.fileserve.com/file/7pVGPz....avi.part2.rar
http://www.fileserve.com/file/2jCzwN....avi.part3.rar
http://www.fileserve.com/file/nnhgKU....avi.part4.rar
http://www.fileserve.com/file/pU2V66....avi.part5.rar
Please-Say-Thanks-To-Keep-The-Topic-Alive.