Chillerama 2011 BRRiP XviD AC3-SiC

iNFo:
IMDB Link:
http://www.imdb.com/title/tt1727252/

Description:
It's the closing night at the last drive-in theater in America and Cecil B. Kaufman has planned the ultimate marathon of lost film prints to unleash upon his faithful cinephile patrons...

MediaInfo:
General
Complete name : Chillerama.2011.BRRiP.XviD.AC3-SiC.avi
Format : AVI
Format/Info : Audio Video Interleave
File size : 1.37 GiB
Duration : 1h 59mn
Overall bit rate : 1 637 Kbps

Video
ID : 0
Format : MPEG-4 Visual
Format profile : Advanced [email protected]
Format settings, BVOP : 2
Format settings, QPel : No
Format settings, GMC : No warppoints
Format settings, Matrix : Default (H.263)
Muxing mode : Packed bitstream
Codec ID : XVID
Codec ID/Hint : XviD
Duration : 1h 59mn
Bit rate : 1 245 Kbps
Width : 720 pixels
Height : 400 pixels
Display aspect ratio : 16:9
Frame rate : 23.976 fps
Color space : YUV
Chroma subsampling : 4:2:0
Bit depth : 8 bits
Scan type : Progressive
Compression mode : Lossy
Bits/(Pixel*Frame) : 0.180
Stream size : 1.04 GiB (76%)
Writing library : XviD 1.1.2 (UTC 2006-11-01)

Audio
ID : 1
Format : AC-3
Format/Info : Audio Coding 3
Mode extension : CM (complete main)
Codec ID : 2000
Duration : 1h 59mn
Bit rate mode : Constant
Bit rate : 384 Kbps
Channel(s) : 6 channels
Channel positions : Front: L C R, Side: L R, LFE
Sampling rate : 48.0 KHz
Bit depth : 16 bits
Compression mode : Lossy
Stream size : 329 MiB (23%)
Alignment : Aligned on interleaves
Interleave, duration : 64 ms (1.53 video frames)
Interleave, preload duration : 192 ms
Title : chill


1-LINK:
http://www.filesonic.com/file/406827...iD.AC3-SiC.rar
Or
http://www.filejungle.com/f/d466aR/C...iD.AC3-SiC.rar
Or
http://www.fileserve.com/file/J8eyZe...iD.AC3-SiC.rar

450mb-iNTERCHANGEABLE:
http://www.filesonic.com/file/406827....avi.part1.rar
http://www.filesonic.com/file/406826....avi.part2.rar
http://www.filesonic.com/file/406826....avi.part3.rar
http://www.filesonic.com/file/406826....avi.part4.rar
Or
http://www.filejungle.com/f/GfVbFU/C....avi.part1.rar
http://www.filejungle.com/f/MzjtkA/C....avi.part2.rar
http://www.filejungle.com/f/NJ8py9/C....avi.part3.rar
http://www.filejungle.com/f/7EZtgh/C....avi.part4.rar
Or
http://www.fileserve.com/file/ka85uc....avi.part1.rar
http://www.fileserve.com/file/v5BsMQ....avi.part2.rar
http://www.fileserve.com/file/VWSPR5....avi.part3.rar
http://www.fileserve.com/file/vFQjS6....avi.part4.rar
Please-Say-Thanks-To-Keep-The-Topic-Alive.