IMDBLINK

http://www.imdb.com/title/tt1640548/



STORYLINE


Set in 1999 Los Angeles, veteran police officer Dave Brown, the last of the renegade cops, works to take care of his family, and struggles for his own survival.



INFORMATION



Rampart.2011.DVDSCR.XviD-ViP3R.avi
Format : AVI
Format/Info : Audio Video Interleave
File size : 700 MiB
Duration : 1h 48mn
Overall bit rate mode : Variable
Overall bit rate : 906 Kbps
Writing application : VirtualDubMod 1.5.4.1 (build 2178/release)
Writing library : VirtualDubMod build 2178/release

Video
ID : 0
Format : MPEG-4 Visual
Format profile : Advanced [email protected]
Format settings, BVOP : 1
Format settings, QPel : No
Format settings, GMC : No warppoints
Format settings, Matrix : Custom
Codec ID : XVID
Codec ID/Hint : XviD
Duration : 1h 48mn
Bit rate : 784 Kbps
Width : 640 pixels
Height : 272 pixels
Display aspect ratio : 2.35:1
Frame rate : 23.976 fps
Color space : YUV
Chroma subsampling : 4:2:0
Bit depth : 8 bits
Scan type : Progressive
Compression mode : Lossy
Bits/(Pixel*Frame) : 0.188
Stream size : 606 MiB (87%)
Writing library : XviD 1.2.1 (UTC 2008-12-04)

Audio
ID : 1
Format : MPEG Audio
Format version : Version 1
Format profile : Layer 3
Mode : Joint stereo
Mode extension : MS Stereo
Codec ID : 55
Codec ID/Hint : MP3
Duration : 1h 48mn
Bit rate mode : Variable
Bit rate : 109 Kbps
Nominal bit rate : 128 Kbps
Channel(s) : 2 channels
Sampling rate : 48.0 KHz
Compression mode : Lossy
Stream size : 84.5 MiB (12%)
Alignment : Aligned on interleaves
Interleave, duration : 24 ms (0.58 video frame)
Interleave, preload duration : 168 ms
Writing library : LAME3.98r
Encoding settings : -m j -V 4 -q 2 -lowpass 17 --abr 128
Language : English



SCREENS












ALL MY UPLOADS ARE 100% WORKING AND LEGIT, NO FAKE
YOU CAN USE DIFFERENT DOWNLOAD SERVERS, ALL FILES ARE THE SAME! LINKS ARE INTERCHANGABLE !


SUPPORT ME:
- Please SAY THANKS if you like my post. It'll only take 2 seconds and I'll know you are a nice person.
It will make your post count increase too!!
-If any link is dead please let me know. I'll fix it ASAP



DOWNLOAD



Download From FileSonic.com
http://www.filesonic.com/file/406007...XviD-ViP3R.rar


Download From Fileserve.com
http://www.fileserve.com/file/HdKWBb...XviD-ViP3R.rar


Download From Filejungle.com
http://www.filejungle.com/f/CkMwDu/R...XviD-ViP3R.rar