IMDBLINK

http://www.imdb.com/title/tt1270798/



STORYLINE

Before Charles Xavier and Erik Lensherr took the names Professor X and Magneto, they were two young men discovering their powers for the first time. Before they were archenemies, they were closest of friends, working together, with other Mutants (some familiar, some new), to stop the greatest threat the world has ever known. In the process, a rift between them opened, which began the eternal war between Magneto's Brotherhood and Professor X's X-MEN.




INFORMATION

X-Men.First.Class.2011.BRrip.XViD-nCODE


Format : AVI
Format/Info : Audio Video Interleave
File size : 800 MiB
Duration : 2h 11mn
Overall bit rate : 849 Kbps
Writing application : Nandub v1.0rc2
Writing library : Nandub build 1853/release
Comment : ViSiT nCODE @ Warez-BB

Video
ID : 0
Format : MPEG-4 Visual
Format profile : Advanced [email protected]
Format settings, BVOP : 2
Format settings, QPel : No
Format settings, GMC : No warppoints
Format settings, Matrix : Default (H.263)
Codec ID : XVID
Codec ID/Hint : XviD
Duration : 2h 11mn
Bit rate : 728 Kbps
Width : 640 pixels
Height : 272 pixels
Display aspect ratio : 2.35:1
Frame rate : 23.976 fps
Color space : YUV
Chroma subsampling : 4:2:0
Bit depth : 8 bits
Scan type : Progressive
Compression mode : Lossy
Bits/(Pixel*Frame) : 0.174
Stream size : 686 MiB (86%)
Writing library : XviD 1.2.1 (UTC 2008-12-04)

Audio
ID : 1
Format : MPEG Audio
Format version : Version 1
Format profile : Layer 3
Mode : Joint stereo
Mode extension : MS Stereo
Codec ID : 55
Codec ID/Hint : MP3
Duration : 2h 11mn
Bit rate mode : Constant
Bit rate : 112 Kbps
Channel(s) : 2 channels
Sampling rate : 44.1 KHz
Compression mode : Lossy
Stream size : 106 MiB (13%)
Alignment : Split accross interleaves
Interleave, duration : 42 ms (1.00 video frame)
Interleave, preload duration : 500 ms
Writing library : LAME3.98r
Encoding settings : -m j -V 4 -q 2 -lowpass 15.6 -b 112

i used the large 720p Blueray as my source (Felony-thanx)
the subs were spot on sync but in 2 places they ran for a few minutes instead of a few seconds.
I did check subs for foreign speaking parts on Google but the translation and the sync was nowhere as good as the Blueray subs & i wasn't gonna trust them.
so the first rip got binned
i edited the 2 lines in the Blueray's subtitles to sync perfectly and re-ripped the movie.
resized keeping proper aspect ratio 2.35:1
i used a couple denoises to aid compression and take any mosquito noise (fuzziness from around the subtitles) & sharpened video a touch.
i hope you'll be happy with this one, i did put the time in..lol

Subtitles ONLY appear when Non-English is spoken

TESTED FiNE ON MY STANDALONE DiVX PLAYER THROUGH USB STiCK!





SCREENS
















ALL MY UPLOADS ARE 100% WORKING AND LEGIT, NO FAKE
YOU CAN USE DIFFERENT DOWNLOAD SERVERS, ALL FILES ARE THE SAME! LINKS ARE INTERCHANGABLE !


SUPPORT ME:
- Please SAY THANKS if you like my post. It'll only take 2 seconds and I'll know you are a nice person.
It will make your post count increase too!!
-If any link is dead please let me know. I'll fix it ASAP



DOWNLOAD



Download From FileSonic.com
http://www.filesonic.com/file/406006...XViD-nCoDE.rar


Download From Fileserve.com
http://www.fileserve.com/file/hvFaQt...XViD-nCoDE.rar


Download From Filejungle.com
http://www.filejungle.com/f/KckwKK/X...XViD-nCoDE.rar