IMDBLINK

http://www.imdb.com/title/tt0889573/



STORYLINE


Kassie (Jennifer Aniston) and Wally (Jason Bateman) are best friends. Being unlucky in love, Kassie has decided to have a child using artificial insemination. Wally doesn't like this idea, but he isn't capable of admitting to himself, let alone to Kassie, that he's in love with her. At Kassie's artificial insemination party, Wally gets very drunk and spies the sperm donor's sample in the bathroom. Wally was way too drunk to know what he did that night, and Kassie has moved away because she doesn't feel that New York City is a place to raise a child. Now 7 years later, Kassie has moved back with her son Sebastian. While she is looking to get Roland (the sperm donor) more involved in their lives, Wally can't help but notice the many striking similarities that he and Sebastian share.



INFORMATION

The.Switch.2010.BDRip.XViD-nCODE

Format : AVI
Format/Info : Audio Video Interleave
File size : 697 MiB
Duration : 1h 41mn
Overall bit rate : 962 Kbps
Writing application : Nandub v1.0rc2
Writing library : Nandub build 1853/release

Video
ID : 0
Format : MPEG-4 Visual
Format profile : Advanced [email protected]
Format settings, BVOP : Yes
Format settings, QPel : No
Format settings, GMC : No warppoints
Format settings, Matrix : Default (H.263)
Codec ID : XVID
Codec ID/Hint : XviD
Duration : 1h 41mn
Bit rate : 838 Kbps
Width : 640 pixels
Height : 272 pixels
Display aspect ratio : 2.35:1
Frame rate : 23.976 fps
Color space : YUV
Chroma subsampling : 4:2:0
Bit depth : 8 bits
Scan type : Progressive
Bits/(Pixel*Frame) : 0.201
Stream size : 607 MiB (87%)
Writing library : XviD 1.2.1 (UTC 2008-12-04)

Audio
ID : 1
Format : MPEG Audio
Format version : Version 1
Format profile : Layer 3
Mode : Joint stereo
Mode extension : MS Stereo
Codec ID : 55
Codec ID/Hint : MP3
Duration : 1h 41mn
Bit rate mode : Variable
Bit rate : 112 Kbps
Nominal bit rate : 130 Kbps
Channel(s) : 2 channels
Sampling rate : 44.1 KHz
Stream size : 81.0 MiB (12%)
Alignment : Aligned on interleaves
Interleave, duration : 26 ms (0.63 video frame)
Interleave, preload duration : 332 ms
Writing library : LAME3.98r
Encoding settings : -m j -V 4 -q 2 -lowpass 17 --abr 130

Source:.Bluray.720p.DTS

Tools: AvsP | MeGUI | Nandub |





SCREENS
















ALL MY UPLOADS ARE 100% WORKING AND LEGIT, NO FAKE
YOU CAN USE DIFFERENT DOWNLOAD SERVERS, ALL FILES ARE THE SAME! LINKS ARE INTERCHANGABLE !


SUPPORT ME:
- Please SAY THANKS if you like my post. It'll only take 2 seconds and I'll know you are a nice person.
It will make your post count increase too!!
-If any link is dead please let me know. I'll fix it ASAP



DOWNLOAD


Download From FileSonic.com
http://www.filesonic.com/file/406009...XViD-nCODE.rar


Download From Fileserve.com
http://www.fileserve.com/file/wkJf2g...XViD-nCODE.rar


Download From Filejungle.com
http://www.filejungle.com/f/sN5S23/T...XViD-nCODE.rar