IMDBLINK

http://www.imdb.com/title/tt0259324/



STORYLINE


When the motorcyclist Johnny Blaze finds that his father Barton Blaze has a terminal cancer, he accepts a pact with the Mephistopheles, giving his soul for the health of his beloved father. But the devil deceives him, and Barton dies in a motorcycle accident during an exhibition. Johnny leaves the carnival, his town, his friends and his girlfriend Roxanne. Years later Johnny Blaze becomes a famous motorcyclist, who risks his life in his shows, and he meets Roxanne again, now a TV reporter. However, Mephistopheles proposes Johnny to release his contract if he become the "Ghost Rider" and defeat his evil son Blackheart, who wants to possess one thousand evil souls and transform hell on earth.



INFORMATION


Ghost.Rider.Extended.Cut.2007.BRrip.XviD-nCODE

Format : AVI
Format/Info : Audio Video Interleave
File size : 798 MiB
Duration : 2h 3mn
Overall bit rate : 904 Kbps

Video
ID : 0
Format : MPEG-4 Visual
Format profile : Advanced [email protected]
Format settings, BVOP : 2
Format settings, QPel : No
Format settings, GMC : No warppoints
Format settings, Matrix : Default (H.263)
Codec ID : XVID
Codec ID/Hint : XviD
Duration : 2h 3mn
Bit rate : 770 Kbps
Width : 640 pixels
Height : 272 pixels
Display aspect ratio : 2.35:1
Frame rate : 23.976 fps
Color space : YUV
Chroma subsampling : 4:2:0
Bit depth : 8 bits
Scan type : Progressive
Compression mode : Lossy
Bits/(Pixel*Frame) : 0.184
Stream size : 680 MiB (85%)
Writing library : XviD 1.2.1 (UTC 2008-12-04)

Audio
ID : 1
Format : MPEG Audio
Format version : Version 1
Format profile : Layer 3
Mode : Joint stereo
Codec ID : 55
Codec ID/Hint : MP3
Duration : 2h 3mn
Bit rate mode : Constant
Bit rate : 128 Kbps
Channel(s) : 2 channels
Sampling rate : 48.0 KHz
Compression mode : Lossy
Stream size : 113 MiB (14%)
Alignment : Aligned on interleaves
Interleave, duration : 167 ms (4.00 video frames)
Interleave, preload duration : 216 ms
Title : ~ RiPPED BY nCODE ~
Writing library : LAME3.98r
Encoding settings : -m j -V 4 -q 2 -lowpass 17 -b 128




SCREENS
















ALL MY UPLOADS ARE 100% WORKING AND LEGIT, NO FAKE
YOU CAN USE DIFFERENT DOWNLOAD SERVERS, ALL FILES ARE THE SAME! LINKS ARE INTERCHANGABLE !


SUPPORT ME:
- Please SAY THANKS if you like my post. It'll only take 2 seconds and I'll know you are a nice person.
It will make your post count increase too!!
-If any link is dead please let me know. I'll fix it ASAP



DOWNLOAD



Download From FileSonic.com
http://www.filesonic.com/file/406000...XviD-nCODE.rar


Download From Fileserve.com
http://www.fileserve.com/file/cH53uU...XviD-nCODE.rar


Download From Filejungle.com
http://www.filejungle.com/f/whTeqQ/G...XviD-nCODE.rar