IMDBLINK

http://www.imdb.com/title/tt1591095/



STORYLINE


A gripping story of a family in search of help for their son, Dalton, who fell into a mysterious coma on one ordinary morning. Little do they know that there is much more to this endless sleep than meets the eye as they explore the paranormal, and rediscover the past; the key to getting their son back once and for all



INFORMATION


Insidious.2011.DVDrip.XViD-nCODE


Format : AVI
Format/Info : Audio Video Interleave
File size : 701 MiB
Duration : 1h 42mn
Overall bit rate : 953 Kbps
Writing application : Nandub v1.0rc2
Writing library : Nandub build 1853/release
Copyright : ripped by nCODE

Video
ID : 0
Format : MPEG-4 Visual
Format profile : Advanced [email protected]
Format settings, BVOP : 2
Format settings, QPel : No
Format settings, GMC : No warppoints
Format settings, Matrix : Default (H.263)
Codec ID : XVID
Codec ID/Hint : XviD
Duration : 1h 42mn
Bit rate : 816 Kbps
Width : 656 pixels
Height : 272 pixels
Display aspect ratio : 2.40:1
Frame rate : 23.976 fps
Color space : YUV
Chroma subsampling : 4:2:0
Bit depth : 8 bits
Scan type : Progressive
Compression mode : Lossy
Bits/(Pixel*Frame) : 0.191
Stream size : 600 MiB (86%)
Writing library : XviD 1.2.1 (UTC 2008-12-04)

Audio
ID : 1
Format : MPEG Audio
Format version : Version 1
Format profile : Layer 3
Mode : Joint stereo
Codec ID : 55
Codec ID/Hint : MP3
Duration : 1h 42mn
Bit rate mode : Constant
Bit rate : 128 Kbps
Channel(s) : 2 channels
Sampling rate : 48.0 KHz
Compression mode : Lossy
Stream size : 94.2 MiB (13%)
Alignment : Split accross interleaves
Interleave, duration : 42 ms (1.00 video frame)
Interleave, preload duration : 500 ms
Writing library : LAME3.98r
Encoding settings : -m j -V 4 -q 2 -lowpass 17 -b 128

source: DVDR, Standalone compatible, hope u njoy!




SCREENS
















ALL MY UPLOADS ARE 100% WORKING AND LEGIT, NO FAKE
YOU CAN USE DIFFERENT DOWNLOAD SERVERS, ALL FILES ARE THE SAME! LINKS ARE INTERCHANGABLE !


SUPPORT ME:
- Please SAY THANKS if you like my post. It'll only take 2 seconds and I'll know you are a nice person.
It will make your post count increase too!!
-If any link is dead please let me know. I'll fix it ASAP



DOWNLOAD




Download From FileSonic.com
http://www.filesonic.com/file/202444...VD70OnC0DE.rar


Download From Fileserve.com
http://www.fileserve.com/file/czShGk...VD70OnC0DE.rar


Download From Filejungle.com
http://www.filejungle.com/f/FmDj72/l...VD70OnC0DE.rar