IMDBLINK

http://www.imdb.com/title/tt1622547/



STORYLINE

Two fledgling criminals kidnap a pizza delivery guy, strap a bomb to his chest, and inform him that he has mere hours to rob a bank or else...






INFORMATION



30.Minutes.or.Less.2011.BRrip.XviD-nCODE

Format : AVI
Format/Info : Audio Video Interleave
File size : 701 MiB
Duration : 1h 23mn
Overall bit rate : 1 180 Kbps
Writing application : Nandub v1.0rc2
Writing library : Nandub build 1853/release
Copyright : ViSiT nCODE @ Warez-BB

Video
ID : 0
Format : MPEG-4 Visual
Format profile : Advanced [email protected]
Format settings, BVOP : 2
Format settings, QPel : No
Format settings, GMC : No warppoints
Format settings, Matrix : Default (H.263)
Codec ID : XVID
Codec ID/Hint : XviD
Duration : 1h 23mn
Bit rate : 1 011 Kbps
Width : 672 pixels
Height : 288 pixels
Display aspect ratio : 2.35:1
Frame rate : 23.976 fps
Color space : YUV
Chroma subsampling : 4:2:0
Bit depth : 8 bits
Scan type : Progressive
Compression mode : Lossy
Bits/(Pixel*Frame) : 0.218
Stream size : 600 MiB (86%)
Writing library : XviD 1.2.1 (UTC 2008-12-04)

Audio
ID : 1
Format : MPEG Audio
Format version : Version 1
Format profile : Layer 3
Mode : Joint stereo
Mode extension : MS Stereo
Codec ID : 55
Codec ID/Hint : MP3
Duration : 1h 23mn
Bit rate mode : Constant
Bit rate : 160 Kbps
Channel(s) : 2 channels
Sampling rate : 48.0 KHz
Compression mode : Lossy
Stream size : 95.0 MiB (14%)
Alignment : Split accross interleaves
Interleave, duration : 42 ms (1.00 video frame)
Interleave, preload duration : 500 ms
Writing library : LAME3.98r
Encoding settings : -m j -V 4 -q 2 -lowpass 17.5 -b 160

not too long a movie so was able to keep good resolution with good bits/pixel and good audio, 160Kbps, nice, loud and insync
good video bitrate too so no compression artifacts etc.
This looks a good comedy, hope you njoy!!!



SCREENS














ALL MY UPLOADS ARE 100% WORKING AND LEGIT, NO FAKE
YOU CAN USE DIFFERENT DOWNLOAD SERVERS, ALL FILES ARE THE SAME! LINKS ARE INTERCHANGABLE !


SUPPORT ME:
- Please SAY THANKS if you like my post. It'll only take 2 seconds and I'll know you are a nice person.
It will make your post count increase too!!
-If any link is dead please let me know. I'll fix it ASAP



DOWNLOAD




Download From FileSonic.com
http://www.filesonic.com/file/406006...XviD-nCODE.rar


Download From Fileserve.com
http://www.fileserve.com/file/8AffpG...XviD-nCODE.rar


Download From Filejungle.com
http://www.filejungle.com/f/SxgsG6/3...XviD-nCODE.rar