IMDBLINK

http://www.imdb.com/title/tt1219289/



STORYLINE


An action-thriller about a writer who takes an experimental drug that allows him to use 100 percent of his mind. As one man evolves into the perfect version of himself, forces more corrupt than he can imagine mark him for assassination. Out-of-work writer Eddie Morra's (Cooper) rejection by girlfriend Lindy (Abbie Cornish) confirms his belief that he has zero future. That all vanishes the day an old friend introduces Eddie to NZT, a designer pharmaceutical that makes him laser focused and more confident than any man alive. Now on an NZT-fueled odyssey, everything Eddie's read, heard or seen is instantly organized and available to him. As the former nobody rises to the top of the financial world, he draws the attention of business mogul Carl Van Loon (De Niro), who sees this enhanced version of Eddie as the tool to make billions. But brutal side effects jeopardize his meteoric ascent...



INFORMATION


Limitless.2011.UNRATED.DvDrip.XviD-nCODE

Format : AVI
Format/Info : Audio Video Interleave
File size : 701 MiB
Duration : 1h 45mn
Overall bit rate : 928 Kbps
Writing application : Nandub v1.0rc2
Writing library : Nandub build 1853/release

Video
ID : 0
Format : MPEG-4 Visual
Format profile : Advanced [email protected]
Format settings, BVOP : 2
Format settings, QPel : No
Format settings, GMC : No warppoints
Format settings, Matrix : Default (H.263)
Codec ID : XVID
Codec ID/Hint : XviD
Duration : 1h 45mn
Bit rate : 791 Kbps
Width : 640 pixels
Height : 256 pixels
Display aspect ratio : 2.500
Frame rate : 23.976 fps
Color space : YUV
Chroma subsampling : 4:2:0
Bit depth : 8 bits
Scan type : Progressive
Compression mode : Lossy
Bits/(Pixel*Frame) : 0.201
Stream size : 597 MiB (85%)
Writing library : XviD 1.2.1 (UTC 2008-12-04)

Audio
ID : 1
Format : MPEG Audio
Format version : Version 1
Format profile : Layer 3
Mode : Joint stereo
Codec ID : 55
Codec ID/Hint : MP3
Duration : 1h 45mn
Bit rate mode : Constant
Bit rate : 128 Kbps
Channel(s) : 2 channels
Sampling rate : 48.0 KHz
Compression mode : Lossy
Stream size : 96.6 MiB (14%)
Alignment : Split accross interleaves
Interleave, duration : 42 ms (1.00 video frame)
Interleave, preload duration : 500 ms
Writing library : LAME3.98r
Encoding settings : -m j -V 4 -q 2 -lowpass 17 -b 128

added a few filters to script to aid compression, denoise and sharpen.
(removegrain, FFT3dGPU, LSFmod)
Encoded with MeGUI and muxed with Nandub for standalone compatibility.
hope you njoy!!




SCREENS















ALL MY UPLOADS ARE 100% WORKING AND LEGIT, NO FAKE
YOU CAN USE DIFFERENT DOWNLOAD SERVERS, ALL FILES ARE THE SAME! LINKS ARE INTERCHANGABLE !


SUPPORT ME:
- Please SAY THANKS if you like my post. It'll only take 2 seconds and I'll know you are a nice person.
It will make your post count increase too!!
-If any link is dead please let me know. I'll fix it ASAP



DOWNLOAD



Download From FileSonic.com
http://www.filesonic.com/file/406002...XviD-nCODE.rar


Download From Fileserve.com
http://www.fileserve.com/file/kDkHMa...XviD-nCODE.rar


Download From Filejungle.com
http://www.filejungle.com/f/C97VTK/L...XviD-nCODE.rar